  0
SECTION
  2
HEADER
  9
$ACADVER
  1
AC1004
  9
$ANGBASE
 50
0.000000
  9
$ANGDIR
 70
     0
  9
$ATTDIA
 70
     0
  9
$ATTMODE
 70
     1
  9
$ATTREQ
 70
     1
  9
$AUNITS
 70
     0
  9
$AUPREC
 70
     0
  9
$AXISMODE
 70
     0
  9
$AXISUNIT
 10
0.000000
 20
0.000000
  9
$BLIPMODE
 70
     1
  9
$CECOLOR
 62
   256
  9
$CELTYPE
  6
BYLAYER
  9
$CHAMFERA
 40
0.000000
  9
$CHAMFERB
 40
0.000000
  9
$CLAYER
  8
0
  9
$COORDS
 70
     0
  9
$DIMALT
 70
     0
  9
$DIMALTD
 70
     2
  9
$DIMALTF
 40
25.400000
  9
$DIMAPOST
  1

  9
$DIMASO
 70
     1
  9
$DIMASZ
 40
0.153877
  9
$DIMBLK
  1

  9
$DIMBLK1
  1

  9
$DIMBLK2
  1

  9
$DIMCEN
 40
9.000000E-02
  9
$DIMDLE
 40
0.000000
  9
$DIMDLI
 40
0.380000
  9
$DIMEXE
 40
0.150000
  9
$DIMEXO
 40
0.100000
  9
$DIMLFAC
 40
1.000000
  9
$DIMLIM
 70
     0
  9
$DIMPOST
  1

  9
$DIMRND
 40
0.000000
  9
$DIMSCALE
 40
1.000000
  9
$DIMSE1
 70
     0
  9
$DIMSE2
 70
     0
  9
$DIMSHO
 70
     0
  9
$DIMTAD
 70
     0
  9
$DIMTIH
 70
     0
  9
$DIMTM
 40
0.000000
  9
$DIMTOH
 70
     1
  9
$DIMTOL
 70
     0
  9
$DIMTP
 40
0.000000
  9
$DIMTSZ
 40
0.000000
  9
$DIMTXT
 40
0.156000
  9
$DIMZIN
 70
     0
  9
$DRAGMODE
 70
     1
  9
$ELEVATION
 40
0.000000
  9
$EXTMAX
 10
17.564484
 20
5.852908
 30
0.000000
  9
$EXTMIN
 10
-4.150843
 20
-5.754739
 30
0.000000
  9
$FASTZOOM
 70
     1
  9
$FILLETRAD
 40
6.250000E-02
  9
$FILLMODE
 70
     1
  9
$GRIDMODE
 70
     0
  9
$GRIDUNIT
 10
0.000000
 20
0.000000
  9
$INSBASE
 10
0.000000
 20
0.000000
 30
0.000000
  9
$LIMCHECK
 70
     0
  9
$LIMMAX
 10
17.564484
 20
5.852908
  9
$LIMMIN
 10
-4.150843
 20
-5.754739
  9
$LTSCALE
 40
1.000000
  9
$LUNITS
 70
     2
  9
$LUPREC
 70
     3
  9
$MEASUREMENT
 70
     0
  9
$MENU
  1
ACAD
  9
$MIRRTEXT
 70
     0
  9
$ORTHOMODE
 70
     0
  9
$OSMODE
 70
     0
  9
$PDMODE
 70
     0
  9
$PDSIZE
 40
0.000000
  9
$PLINEWID
 40
0.000000
  9
$PROXYGRAPHICS
 70
     0
  9
$QTEXTMODE
 70
     0
  9
$REGENMODE
 70
     1
  9
$SKETCHINC
 40
0.100000
  9
$SKPOLY
 70
     0
  9
$SNAPANG
 50
0.000000
  9
$SNAPBASE
 10
0.000000
 20
0.000000
  9
$SNAPISOPAIR
 70
     0
  9
$SNAPMODE
 70
     0
  9
$SNAPSTYLE
 70
     0
  9
$SNAPUNIT
 10
1.000000
 20
1.000000
  9
$SPLFRAME
 70
     0
  9
$SPLINESEGS
 70
     8
  9
$TDCREATE
 40
2452368.370764
  9
$TDINDWG
 40
0.000000
  9
$TDUPDATE
 40
2452368.370764
  9
$TDUSRTIMER
 40
0.000000
  9
$TEXTSIZE
 40
0.156000
  9
$TEXTSTYLE
  7
STANDARD
  9
$THICKNESS
 40
0.000000
  9
$TRACEWID
 40
5.000000E-02
  9
$USERI1
 70
     0
  9
$USERI2
 70
     0
  9
$USERI3
 70
     0
  9
$USERI4
 70
     0
  9
$USERI5
 70
     0
  9
$USERR1
 40
0.000000
  9
$USERR2
 40
0.000000
  9
$USERR3
 40
0.000000
  9
$USERR4
 40
0.000000
  9
$USERR5
 40
0.000000
  9
$USRTIMER
 70
     1
  9
$VIEWCTR
 10
6.706820
 20
4.908466E-02
  9
$VIEWDIR
 10
0.000000
 20
0.000000
 30
1.000000
  9
$VIEWSIZE
 40
11.607647
  0
ENDSEC
  0
SECTION
  2
TABLES
  0
TABLE
  2
LTYPE
 70
     5
  0
LTYPE
  2
SOLID
  3
Solid
 70
    64
 72
    65
 73
     0
 40
0.000000
  0
LTYPE
  2
DASHED
  3
Dashed
 70
    64
 72
    65
 73
     2
 40
0.187500
 49
0.125000
 49
-6.250000E-02
  0
LTYPE
  2
CENTERLINE
  3
Centerline
 70
    64
 72
    65
 73
     4
 40
1.000000
 49
0.750000
 49
-6.250000E-02
 49
0.125000
 49
-6.250000E-02
  0
LTYPE
  2
CONSTRUCTION
  3
Construction
 70
    64
 72
    65
 73
     2
 40
4.000000E-02
 49
1.000000E-02
 49
-3.000000E-02
  0
LTYPE
  2
GAP
  3
Gap
 70
    64
 72
    65
 73
     3
 40
100.060000
 49
0.000000
 49
-6.000000E-02
 49
100.000000
  0
ENDTAB
  0
TABLE
  2
LAYER
 70
     2
  0
LAYER
  2
Layer0$C$L0
 70
     0
  6
SOLID
 62
     2
  0
LAYER
  2
Layer85$C$L85
 70
     0
  6
SOLID
 62
     6
  0
ENDTAB
  0
TABLE
  2
STYLE
 70
     1
  0
STYLE
  2
STANDARD
  3
txt
  4

 40
0.000000
 41
1.000000
 42
0.125000
 50
0.000000
 70
     0
 71
     0
  0
ENDTAB
  0
ENDSEC
  0
SECTION
  2
BLOCKS
  0
BLOCK
  8
Layer0$C$L0
  2
*D0
 70
     1
 10
0.000000
 20
0.000000
  0
SOLID
  8
Layer0$C$L0
 62
     0
 10
-0.4014996727
 20
-3.1469974600
 11
-0.4623678486
 21
-3.1469974600
 12
-0.4319337606
 22
-3.2999999523
 13
-0.4319337606
 23
-3.2999999523
  0
LINE
  8
Layer0$C$L0
 10
-0.4319337606
 20
-3.2999999523
 11
-0.4319337606
 21
-2.6762208951
  0
SOLID
  8
Layer0$C$L0
 62
     0
 10
-0.4623678486
 20
-2.1720024414
 11
-0.4014996727
 21
-2.1720024414
 12
-0.4319337606
 22
-2.0189999491
 13
-0.4319337606
 23
-2.0189999491
  0
LINE
  8
Layer0$C$L0
 10
-0.4319337606
 20
-2.0189999491
 11
-0.4319337606
 21
-2.4262208926
  0
LINE
  8
Layer0$C$L0
  6
GAP
 10
-8.0966331065E-02
 20
-3.2999999523
 11
-0.5819337517
 21
-3.2999999523
  0
LINE
  8
Layer0$C$L0
  6
GAP
 10
0.8894412741
 20
-2.0189999491
 11
-0.5819337517
 21
-2.0189999491
  0
TEXT
  8
Layer0$C$L0
 10
-0.6652214201
 20
-2.6137208951
 40
0.1250000026
  1
1.28
 72
     5
 11
-0.1986461012
 21
-2.6137208951
  0
ENDBLK
  8
Layer0$C$L0
  0
BLOCK
  8
Layer0$C$L0
  2
*D1
 70
     1
 10
0.0000000000
 20
0.0000000000
  0
SOLID
  8
Layer0$C$L0
 62
     0
 10
6.4328455488
 20
-3.1821656310
 11
6.3719773729
 21
-3.1821656310
 12
6.4024114609
 22
-3.3351681232
 13
6.4024114609
 23
-3.3351681232
  0
LINE
  8
Layer0$C$L0
 10
6.4024114609
 20
-3.3351681232
 11
6.4024114609
 21
-2.5144741548
  0
SOLID
  8
Layer0$C$L0
 62
     0
 10
6.3719773729
 20
-1.8636706240
 11
6.4328455488
 21
-1.8636706240
 12
6.4024114609
 22
-1.7106681317
 13
6.4024114609
 23
-1.7106681317
  0
LINE
  8
Layer0$C$L0
 10
6.4024114609
 20
-1.7106681317
 11
6.4024114609
 21
-2.2644741522
  0
LINE
  8
Layer0$C$L0
  6
GAP
 10
7.4912041649
 20
-3.3351681232
 11
6.2524114698
 21
-3.3351681232
  0
LINE
  8
Layer0$C$L0
  6
GAP
 10
8.0102053359
 20
-1.7106681317
 11
6.2524114698
 21
-1.7106681317
  0
TEXT
  8
Layer0$C$L0
 10
6.1691238014
 20
-2.4519741548
 40
0.1250000026
  1
1.62
 72
     5
 11
6.6356991204
 21
-2.4519741548
  0
ENDBLK
  8
Layer0$C$L0
  0
BLOCK
  8
Layer0$C$L0
  2
*D2
 70
     1
 10
0.0000000000
 20
0.0000000000
  0
SOLID
  8
Layer0$C$L0
 62
     0
 10
7.0080866377
 20
-3.1821656310
 11
6.9472184618
 21
-3.1821656310
 12
6.9776525497
 22
-3.3351681232
 13
6.9776525497
 23
-3.3351681232
  0
LINE
  8
Layer0$C$L0
 10
6.9776525497
 20
-3.3351681232
 11
6.9776525497
 21
-2.8581244958
  0
SOLID
  8
Layer0$C$L0
 62
     0
 10
6.9472184618
 20
-2.3636705942
 11
7.0080866377
 21
-2.3636705942
 12
6.9776525497
 22
-2.2106681019
 13
6.9776525497
 23
-2.2106681019
  0
LINE
  8
Layer0$C$L0
 10
6.9776525497
 20
-2.2106681019
 11
6.9776525497
 21
-2.6081244933
  0
LINE
  8
Layer0$C$L0
  6
GAP
 10
7.4912041649
 20
-3.3351681232
 11
6.8276525587
 21
-3.3351681232
  0
LINE
  8
Layer0$C$L0
  6
GAP
 10
8.0102053359
 20
-2.2106681019
 11
6.8276525587
 21
-2.2106681019
  0
TEXT
  8
Layer0$C$L0
 10
6.7443648903
 20
-2.7956244958
 40
0.1250000026
  1
1.12
 72
     5
 11
7.2109402092
 21
-2.7956244958
  0
ENDBLK
  8
Layer0$C$L0
  0
BLOCK
  8
Layer0$C$L0
  2
*D3
 70
     1
 10
0.0000000000
 20
0.0000000000
  0
SOLID
  8
Layer0$C$L0
 62
     0
 10
0.2678332246
 20
-0.3729882996
 11
0.2678332246
 21
-0.3121201237
 12
0.1148307323
 22
-0.3425542116
 13
0.1148307323
 23
-0.3425542116
  0
LINE
  8
Layer0$C$L0
 10
0.1148307323
 20
-0.3425542116
 11
2.2723471252
 21
-0.3425542116
  0
SOLID
  8
Layer0$C$L0
 62
     0
 10
4.9818279826
 20
-0.3121201237
 11
4.9818279826
 21
-0.3729882996
 12
5.1348304749
 22
-0.3425542116
 13
5.1348304749
 23
-0.3425542116
  0
LINE
  8
Layer0$C$L0
 10
5.1348304749
 20
-0.3425542116
 11
2.8639224442
 21
-0.3425542116
  0
LINE
  8
Layer0$C$L0
  6
GAP
 10
0.1148307323
 20
-0.1000000015
 11
0.1148307323
 21
-0.4925542027
  0
LINE
  8
Layer0$C$L0
  6
GAP
 10
5.1348304749
 20
-0.1000000015
 11
5.1348304749
 21
-0.4925542027
  0
TEXT
  8
Layer0$C$L0
 10
2.3348471252
 20
-0.4050542129
 40
0.1250000026
  1
5.02
 72
     5
 11
2.8014224442
 21
-0.4050542129
  0
ENDBLK
  8
Layer0$C$L0
  0
BLOCK
  8
Layer0$C$L0
  2
*D4
 70
     1
 10
0.0000000000
 20
0.0000000000
  0
SOLID
  8
Layer0$C$L0
 62
     0
 10
3.9568283640
 20
4.4009694616
 11
3.9568283640
 21
4.3401012857
 12
4.1098308563
 22
4.3705353737
 13
4.1098308563
 23
4.3705353737
  0
LINE
  8
Layer0$C$L0
 10
4.1098308563
 20
4.3705353737
 11
3.7098308504
 21
4.3705353737
  0
SOLID
  8
Layer0$C$L0
 62
     0
 10
4.5628335393
 20
4.3401012857
 11
4.5628335393
 21
4.4009694616
 12
4.4098310471
 22
4.3705353737
 13
4.4098310471
 23
4.3705353737
  0
LINE
  8
Layer0$C$L0
 10
4.4098310471
 20
4.3705353737
 11
4.6745597450
 21
4.3705353737
  0
LINE
  8
Layer0$C$L0
  6
GAP
 10
4.1098308563
 20
4.1768876091
 11
4.1098308563
 21
4.5205353647
  0
LINE
  8
Layer0$C$L0
  6
GAP
 10
4.4098310471
 20
4.1768876091
 11
4.4098310471
 21
4.5205353647
  0
TEXT
  8
Layer0$C$L0
 10
4.7370597450
 20
4.3080353724
 40
0.1250000026
  1
.30
 72
     5
 11
5.0786350640
 21
4.3080353724
  0
TEXT
  8
Layer0$C$L0
 10
5.1120597450
 20
4.3080353724
 40
0.1250000026
  1
 TYP
 72
     5
 11
5.5786350640
 21
4.3080353724
  0
TEXT
  8
Layer0$C$L0
 10
4.7370597450
 20
4.1205353724
 40
0.1250000026
  1
6X
 72
     5
 11
4.9536350640
 21
4.1205353724
  0
ENDBLK
  8
Layer0$C$L0
  0
BLOCK
  8
Layer0$C$L0
  2
*D5
 70
     1
 10
0.0000000000
 20
0.0000000000
  0
SOLID
  8
Layer0$C$L0
 62
     0
 10
1.1428329862
 20
4.3225436647
 11
1.1428329862
 21
4.3834118406
 12
0.9898304939
 22
4.3529777527
 13
0.9898304939
 23
4.3529777527
  0
LINE
  8
Layer0$C$L0
 10
0.9898304939
 20
4.3529777527
 11
1.4250283567
 21
4.3529777527
  0
SOLID
  8
Layer0$C$L0
 62
     0
 10
2.4718279921
 20
4.3834118406
 11
2.4718279921
 21
4.3225436647
 12
2.6248304844
 22
4.3529777527
 13
2.6248304844
 23
4.3529777527
  0
LINE
  8
Layer0$C$L0
 10
2.6248304844
 20
4.3529777527
 11
2.0166036757
 21
4.3529777527
  0
LINE
  8
Layer0$C$L0
  6
GAP
 10
0.9898304939
 20
4.0688434616
 11
0.9898304939
 21
4.5029777437
  0
LINE
  8
Layer0$C$L0
  6
GAP
 10
2.6248304844
 20
4.0688434616
 11
2.6248304844
 21
4.5029777437
  0
TEXT
  8
Layer0$C$L0
 10
1.4875283567
 20
4.2904777514
 40
0.1250000026
  1
.163
 72
     5
 11
1.9541036757
 21
4.2904777514
  0
ENDBLK
  8
Layer0$C$L0
  0
BLOCK
  8
Layer0$C$L0
  2
*D6
 70
     1
 10
0.0000000000
 20
0.0000000000
  0
SOLID
  8
Layer0$C$L0
 62
     0
 10
0.2678332246
 20
4.3225436647
 11
0.2678332246
 21
4.3834118406
 12
0.1148307323
 22
4.3529777527
 13
0.1148307323
 23
4.3529777527
  0
LINE
  8
Layer0$C$L0
 10
0.1148307323
 20
4.3529777527
 11
0.2891763775
 21
4.3529777527
  0
SOLID
  8
Layer0$C$L0
 62
     0
 10
0.8368280016
 20
4.3834118406
 11
0.8368280016
 21
4.3225436647
 12
0.9898304939
 22
4.3529777527
 13
0.9898304939
 23
4.3529777527
  0
LINE
  8
Layer0$C$L0
 10
0.9898304939
 20
4.3529777527
 11
0.7557516964
 21
4.3529777527
  0
LINE
  8
Layer0$C$L0
  6
GAP
 10
0.1148307323
 20
4.1000000015
 11
0.1148307323
 21
4.5029777437
  0
LINE
  8
Layer0$C$L0
  6
GAP
 10
0.9898304939
 20
4.0688434616
 11
0.9898304939
 21
4.5029777437
  0
TEXT
  8
Layer0$C$L0
 10
0.3516763775
 20
4.2904777514
 40
0.1250000026
  1
.87
 72
     5
 11
0.6932516964
 21
4.2904777514
  0
ENDBLK
  8
Layer0$C$L0
  0
BLOCK
  8
Layer0$C$L0
  2
*D7
 70
     1
 10
0.0000000000
 20
0.0000000000
  0
SOLID
  8
Layer0$C$L0
 62
     0
 10
5.835193
 20
-3.182166
 11
5.774324
 21
-3.182166
 12
5.804759
 22
-3.335168
 13
5.804759
 23
-3.335168
  0
LINE
  8
Layer0$C$L0
 10
5.804759
 20
-3.335168
 11
5.804759
 21
-2.073705
  0
SOLID
  8
Layer0$C$L0
 62
     0
 10
5.774324
 20
-0.863171
 11
5.835193
 21
-0.863171
 12
5.804759
 22
-0.710168
 13
5.804759
 23
-0.710168
  0
LINE
  8
Layer0$C$L0
 10
5.804759
 20
-0.710168
 11
5.804759
 21
-1.823705
  0
LINE
  8
Layer0$C$L0
  6
GAP
 10
7.491204
 20
-3.335168
 11
5.654758
 21
-3.335168
  0
LINE
  8
Layer0$C$L0
  6
GAP
 10
7.418704
 20
-0.710168
 11
5.654758
 21
-0.710168
  0
TEXT
  8
Layer0$C$L0
 10
5.571471
 20
-2.011205
 40
0.125000
  1
2.63
 72
     5
 11
6.038046
 21
-2.011205
  0
ENDBLK
  8
Layer0$C$L0
  0
BLOCK
  8
Layer0$C$L0
  2
*D8
 70
     1
 10
0.000000
 20
0.000000
  0
SOLID
  8
Layer0$C$L0
 62
     0
 10
-0.820851
 20
-3.146997
 11
-0.881720
 21
-3.146997
 12
-0.851286
 22
-3.300000
 13
-0.851286
 23
-3.300000
  0
LINE
  8
Layer0$C$L0
 10
-0.851286
 20
-3.300000
 11
-0.851285
 21
-1.844254
  0
SOLID
  8
Layer0$C$L0
 62
     0
 10
-0.881719
 20
-0.723002
 11
-0.820851
 21
-0.723002
 12
-0.851285
 22
-0.570000
 13
-0.851285
 23
-0.570000
  0
LINE
  8
Layer0$C$L0
 10
-0.851285
 20
-0.570000
 11
-0.851285
 21
-1.594254
  0
LINE
  8
Layer0$C$L0
  6
GAP
 10
-0.492714
 20
-3.300000
 11
-1.001286
 21
-3.300000
  0
LINE
  8
Layer0$C$L0
  6
GAP
 10
-0.303304
 20
-0.570000
 11
-1.001285
 21
-0.570000
  0
TEXT
  8
Layer0$C$L0
 10
-1.084573
 20
-1.781754
 40
0.125000
  1
2.73
 72
     5
 11
-0.617998
 21
-1.781754
  0
ENDBLK
  8
Layer0$C$L0
  0
BLOCK
  8
Layer0$C$L0
  2
*D9
 70
     1
 10
0.000000
 20
0.000000
  0
SOLID
  8
Layer0$C$L0
 62
     0
 10
7.128537
 20
4.044003
 11
7.067669
 21
4.044003
 12
7.098103
 22
3.891001
 13
7.098103
 23
3.891001
  0
LINE
  8
Layer0$C$L0
 10
7.098103
 20
3.891001
 11
7.098103
 21
4.291001
  0
SOLID
  8
Layer0$C$L0
 62
     0
 10
7.067669
 20
3.331998
 11
7.128537
 21
3.331998
 12
7.098103
 22
3.485001
 13
7.098103
 23
3.485001
  0
LINE
  8
Layer0$C$L0
 10
7.098103
 20
3.485001
 11
7.098103
 21
3.074094
  0
LINE
  8
Layer0$C$L0
  6
GAP
 10
4.509831
 20
3.891001
 11
7.248103
 21
3.891001
  0
LINE
  8
Layer0$C$L0
  6
GAP
 10
4.509831
 20
3.485001
 11
7.248103
 21
3.485001
  0
TEXT
  8
Layer0$C$L0
 10
6.927315
 20
2.886594
 40
0.125000
  1
.41
 72
     5
 11
7.268891
 21
2.886594
  0
TEXT
  8
Layer0$C$L0
 10
6.927315
 20
2.699094
 40
0.125000
  1
TYP
 72
     5
 11
7.268891
 21
2.699094
  0
TEXT
  8
Layer0$C$L0
 10
6.927315
 20
2.511594
 40
0.125000
  1
6X
 72
     5
 11
7.143891
 21
2.511594
  0
ENDBLK
  8
Layer0$C$L0
  0
BLOCK
  8
Layer0$C$L0
  2
*D10
 70
     1
 10
0.000000
 20
0.000000
  0
SOLID
  8
Layer0$C$L0
 62
     0
 10
6.162019
 20
3.950003
 11
6.101151
 21
3.950003
 12
6.131585
 22
3.797001
 13
6.131585
 23
3.797001
  0
LINE
  8
Layer0$C$L0
 10
6.131585
 20
3.797001
 11
6.131585
 21
4.197001
  0
SOLID
  8
Layer0$C$L0
 62
     0
 10
6.101151
 20
3.425998
 11
6.162019
 21
3.425998
 12
6.131585
 22
3.579000
 13
6.131585
 23
3.579000
  0
LINE
  8
Layer0$C$L0
 10
6.131585
 20
3.579000
 11
6.131585
 21
3.242567
  0
LINE
  8
Layer0$C$L0
  6
GAP
 10
4.509831
 20
3.797001
 11
6.281585
 21
3.797001
  0
LINE
  8
Layer0$C$L0
  6
GAP
 10
4.509831
 20
3.579000
 11
6.281585
 21
3.579000
  0
TEXT
  8
Layer0$C$L0
 10
5.585797
 20
3.055067
 40
0.125000
  1
.22
 72
     5
 11
5.927372
 21
3.055067
  0
TEXT
  8
Layer0$C$L0
 10
5.960797
 20
3.055067
 40
0.125000
  1
 THRU 
 72
     5
 11
6.677372
 21
3.055067
  0
TEXT
  8
Layer0$C$L0
 10
5.585797
 20
2.867567
 40
0.125000
  1
TYP
 72
     5
 11
5.927372
 21
2.867567
  0
TEXT
  8
Layer0$C$L0
 10
5.585797
 20
2.680067
 40
0.125000
  1
6 X
 72
     5
 11
5.927372
 21
2.680067
  0
ENDBLK
  8
Layer0$C$L0
  0
BLOCK
  8
Layer0$C$L0
  2
*D11
 70
     1
 10
0.000000
 20
0.000000
  0
SOLID
  8
Layer0$C$L0
 62
     0
 10
-0.889223
 20
3.846998
 11
-0.828355
 21
3.846998
 12
-0.858789
 22
4.000000
 13
-0.858789
 23
4.000000
  0
LINE
  8
Layer0$C$L0
 10
-0.858789
 20
4.000000
 11
-0.858789
 21
2.094395
  0
SOLID
  8
Layer0$C$L0
 62
     0
 10
-0.828355
 20
0.153003
 11
-0.889223
 21
0.153003
 12
-0.858789
 22
1.028895E-07
 13
-0.858789
 23
1.028895E-07
  0
LINE
  8
Layer0$C$L0
 10
-0.858789
 20
1.028895E-07
 11
-0.858789
 21
1.844395
  0
LINE
  8
Layer0$C$L0
  6
GAP
 10
-0.333346
 20
4.000000
 11
-1.008789
 21
4.000000
  0
LINE
  8
Layer0$C$L0
  6
GAP
 10
-0.353149
 20
8.083208E-08
 11
-1.008789
 21
1.094329E-07
  0
TEXT
  8
Layer0$C$L0
 10
-1.092077
 20
1.906895
 40
0.125000
  1
4.00
 72
     5
 11
-0.625501
 21
1.906895
  0
ENDBLK
  8
Layer0$C$L0
  0
BLOCK
  8
Layer0$C$L0
  2
*D12
 70
     1
 10
0.000000
 20
0.000000
  0
SOLID
  8
Layer0$C$L0
 62
     0
 10
-0.341316
 20
4.153002
 11
-0.402185
 21
4.153002
 12
-0.371750
 22
4.000000
 13
-0.371750
 23
4.000000
  0
LINE
  8
Layer0$C$L0
 10
-0.371750
 20
4.000000
 11
-0.371750
 21
4.400000
  0
SOLID
  8
Layer0$C$L0
 62
     0
 10
-0.402185
 20
3.534997
 11
-0.341316
 21
3.534997
 12
-0.371750
 22
3.688000
 13
-0.371750
 23
3.688000
  0
LINE
  8
Layer0$C$L0
 10
-0.371750
 20
3.688000
 11
-0.371751
 21
3.288000
  0
LINE
  8
Layer0$C$L0
  6
GAP
 10
-0.153663
 20
4.000000
 11
-0.521750
 21
4.000000
  0
LINE
  8
Layer0$C$L0
  6
GAP
 10
-4.235953E-03
 20
3.688000
 11
-0.521751
 21
3.688000
  0
TEXT
  8
Layer0$C$L0
 10
-0.542538
 20
3.812500
 40
0.125000
  1
.31
 72
     5
 11
-0.200963
 21
3.812500
  0
ENDBLK
  8
Layer0$C$L0
  0
BLOCK
  8
Layer0$C$L0
  2
*D13
 70
     1
 10
0.000000
 20
0.000000
  0
SOLID
  8
Layer0$C$L0
 62
     0
 10
-0.402185
 20
3.534997
 11
-0.341316
 21
3.534997
 12
-0.371750
 22
3.688000
 13
-0.371750
 23
3.688000
  0
LINE
  8
Layer0$C$L0
 10
-0.371750
 20
3.688000
 11
-0.371751
 21
2.299464
  0
SOLID
  8
Layer0$C$L0
 62
     0
 10
-0.341317
 20
0.465003
 11
-0.402185
 21
0.465003
 12
-0.371751
 22
0.312000
 13
-0.371751
 23
0.312000
  0
LINE
  8
Layer0$C$L0
 10
-0.371751
 20
0.312000
 11
-0.371751
 21
2.049464
  0
LINE
  8
Layer0$C$L0
  6
GAP
 10
0.155267
 20
3.688000
 11
-0.521750
 21
3.688000
  0
LINE
  8
Layer0$C$L0
  6
GAP
 10
0.155267
 20
0.312000
 11
-0.521751
 21
0.312000
  0
TEXT
  8
Layer0$C$L0
 10
-0.605038
 20
2.111964
 40
0.125000
  1
3.38
 72
     5
 11
-0.138463
 21
2.111964
  0
ENDBLK
  8
Layer0$C$L0
  0
BLOCK
  8
Layer0$C$L0
  2
*X0
 70
     1
 10
0.000000
 20
0.000000
  0
LINE
  8
Layer0$C$L0
 10
-4.465036
 20
1.101342
 11
-4.456174
 21
1.110204
  0
LINE
  8
Layer0$C$L0
 10
-4.445858
 20
1.141734
 11
-4.496564
 21
1.091026
  0
LINE
  8
Layer0$C$L0
 10
-4.506448
 20
1.102355
 11
-4.517778
 21
1.091026
  0
LINE
  8
Layer0$C$L0
 10
-4.445858
 20
1.162946
 11
-4.487188
 21
1.121617
  0
LINE
  8
Layer0$C$L0
 10
-4.529142
 20
1.100875
 11
-4.538991
 21
1.091026
  0
LINE
  8
Layer0$C$L0
 10
-4.445858
 20
1.184160
 11
-4.485708
 21
1.144310
  0
LINE
  8
Layer0$C$L0
 10
-4.550355
 20
1.100875
 11
-4.560205
 21
1.091026
  0
LINE
  8
Layer0$C$L0
 10
-4.460456
 20
1.190774
 11
-4.486736
 21
1.164495
  0
LINE
  8
Layer0$C$L0
 10
-4.568008
 20
1.104434
 11
-4.581106
 21
1.091339
  0
LINE
  8
Layer0$C$L0
 10
-4.481668
 20
1.190774
 11
-4.496688
 21
1.175756
  0
LINE
  8
Layer0$C$L0
 10
-4.445835
 20
1.226610
 11
-4.456441
 21
1.216003
  0
LINE
  8
Layer0$C$L0
 10
-4.578947
 20
1.114710
 11
-4.596979
 21
1.096679
  0
LINE
  8
Layer0$C$L0
 10
-4.502882
 20
1.190774
 11
-4.515695
 21
1.177963
  0
LINE
  8
Layer0$C$L0
 10
-4.446043
 20
1.247614
 11
-4.477655
 21
1.216003
  0
LINE
  8
Layer0$C$L0
 10
-4.583850
 20
1.131019
 11
-4.609207
 21
1.105664
  0
LINE
  8
Layer0$C$L0
 10
-4.524095
 20
1.190774
 11
-4.530670
 21
1.184201
  0
LINE
  8
Layer0$C$L0
 10
-4.451227
 20
1.263644
 11
-4.485633
 21
1.229237
  0
LINE
  8
Layer0$C$L0
 10
-4.583850
 20
1.152233
 11
-4.618082
 21
1.118000
  0
LINE
  8
Layer0$C$L0
 10
-4.460109
 20
1.275975
 11
-4.485633
 21
1.250450
  0
LINE
  8
Layer0$C$L0
 10
-4.583850
 20
1.173445
 11
-4.623136
 21
1.134160
  0
LINE
  8
Layer0$C$L0
 10
-4.472221
 20
1.285075
 11
-4.490362
 21
1.266935
  0
LINE
  8
Layer0$C$L0
 10
-4.583850
 20
1.194659
 11
-4.623600
 21
1.154909
  0
LINE
  8
Layer0$C$L0
 10
-4.488332
 20
1.290177
 11
-4.501300
 21
1.277210
  0
LINE
  8
Layer0$C$L0
 10
-4.583850
 20
1.215872
 11
-4.623600
 21
1.176123
  0
LINE
  8
Layer0$C$L0
 10
-4.508995
 20
1.290728
 11
-4.518692
 21
1.281031
  0
LINE
  8
Layer0$C$L0
 10
-4.583850
 20
1.237085
 11
-4.623600
 21
1.197337
  0
LINE
  8
Layer0$C$L0
 10
-4.530208
 20
1.290728
 11
-4.539905
 21
1.281031
  0
LINE
  8
Layer0$C$L0
 10
-4.582122
 20
1.260027
 11
-4.623600
 21
1.218549
  0
LINE
  8
Layer0$C$L0
 10
-4.551422
 20
1.290728
 11
-4.562860
 21
1.279289
  0
LINE
  8
Layer0$C$L0
 10
-4.572635
 20
1.290728
 11
-4.623600
 21
1.239763
  0
LINE
  8
Layer0$C$L0
 10
-4.604272
 20
1.280303
 11
-4.613136
 21
1.271441
  0
ENDBLK
  8
Layer0$C$L0
  0
BLOCK
  8
Layer0$C$L0
  2
*X1
 70
     1
 10
0.000000
 20
0.000000
  0
LINE
  8
Layer0$C$L0
 10
-4.273023
 20
1.091120
 11
-4.227951
 21
1.136193
  0
LINE
  8
Layer0$C$L0
 10
-4.227609
 20
1.157749
 11
-4.294580
 21
1.090778
  0
LINE
  8
Layer0$C$L0
 10
-4.305591
 20
1.100981
 11
-4.315794
 21
1.090778
  0
LINE
  8
Layer0$C$L0
 10
-4.227609
 20
1.178962
 11
-4.267810
 21
1.138759
  0
LINE
  8
Layer0$C$L0
 10
-4.326803
 20
1.100981
 11
-4.337007
 21
1.090778
  0
LINE
  8
Layer0$C$L0
 10
-4.227609
 20
1.200175
 11
-4.267810
 21
1.159973
  0
LINE
  8
Layer0$C$L0
 10
-4.346269
 20
1.102729
 11
-4.357912
 21
1.091087
  0
LINE
  8
Layer0$C$L0
 10
-4.227609
 20
1.221388
 11
-4.267810
 21
1.181185
  0
LINE
  8
Layer0$C$L0
 10
-4.358665
 20
1.111546
 11
-4.375394
 21
1.094818
  0
LINE
  8
Layer0$C$L0
 10
-4.227746
 20
1.242463
 11
-4.267810
 21
1.202399
  0
LINE
  8
Layer0$C$L0
 10
-4.365289
 20
1.126134
 11
-4.388381
 21
1.103042
  0
LINE
  8
Layer0$C$L0
 10
-4.231533
 20
1.259890
 11
-4.267810
 21
1.223612
  0
LINE
  8
Layer0$C$L0
 10
-4.365602
 20
1.147035
 11
-4.398153
 21
1.114484
  0
LINE
  8
Layer0$C$L0
 10
-4.239507
 20
1.273129
 11
-4.267810
 21
1.244825
  0
LINE
  8
Layer0$C$L0
 10
-4.365602
 20
1.168248
 11
-4.404340
 21
1.129511
  0
LINE
  8
Layer0$C$L0
 10
-4.250837
 20
1.283014
 11
-4.270483
 21
1.263367
  0
LINE
  8
Layer0$C$L0
 10
-4.365602
 20
1.189461
 11
-4.405706
 21
1.149359
  0
LINE
  8
Layer0$C$L0
 10
-4.265731
 20
1.289332
 11
-4.279994
 21
1.275069
  0
LINE
  8
Layer0$C$L0
 10
-4.365602
 20
1.210674
 11
-4.405706
 21
1.170572
  0
LINE
  8
Layer0$C$L0
 10
-4.285442
 20
1.290834
 11
-4.295511
 21
1.280766
  0
LINE
  8
Layer0$C$L0
 10
-4.365602
 20
1.231887
 11
-4.405706
 21
1.191785
  0
LINE
  8
Layer0$C$L0
 10
-4.306657
 20
1.290834
 11
-4.316707
 21
1.280784
  0
LINE
  8
Layer0$C$L0
 10
-4.365797
 20
1.252907
 11
-4.405706
 21
1.212999
  0
LINE
  8
Layer0$C$L0
 10
-4.327869
 20
1.290834
 11
-4.337739
 21
1.280964
  0
LINE
  8
Layer0$C$L0
 10
-4.349082
 20
1.290834
 11
-4.405706
 21
1.234211
  0
LINE
  8
Layer0$C$L0
 10
-4.373939
 20
1.287191
 11
-4.402023
 21
1.259108
  0
ENDBLK
  8
Layer0$C$L0
  0
BLOCK
  8
Layer0$C$L0
  2
*X2
 70
     1
 10
0.000000
 20
0.000000
  0
LINE
  8
Layer0$C$L0
 10
-4.048709
 20
1.091990
 11
-4.010820
 21
1.129878
  0
LINE
  8
Layer0$C$L0
 10
-4.009714
 20
1.152197
 11
-4.071027
 21
1.090884
  0
LINE
  8
Layer0$C$L0
 10
-4.082391
 20
1.100733
 11
-4.092241
 21
1.090884
  0
LINE
  8
Layer0$C$L0
 10
-4.009714
 20
1.173411
 11
-4.049564
 21
1.133561
  0
LINE
  8
Layer0$C$L0
 10
-4.103605
 20
1.100733
 11
-4.113454
 21
1.090884
  0
LINE
  8
Layer0$C$L0
 10
-4.009714
 20
1.194624
 11
-4.049564
 21
1.154775
  0
LINE
  8
Layer0$C$L0
 10
-4.124101
 20
1.101449
 11
-4.134668
 21
1.090884
  0
LINE
  8
Layer0$C$L0
 10
-4.009714
 20
1.215837
 11
-4.049564
 21
1.175988
  0
LINE
  8
Layer0$C$L0
 10
-4.137985
 20
1.108778
 11
-4.153299
 21
1.093465
  0
LINE
  8
Layer0$C$L0
 10
-4.009714
 20
1.237050
 11
-4.049564
 21
1.197201
  0
LINE
  8
Layer0$C$L0
 10
-4.146305
 20
1.121672
 11
-4.167375
 21
1.100603
  0
LINE
  8
Layer0$C$L0
 10
-4.009714
 20
1.258264
 11
-4.049564
 21
1.218415
  0
LINE
  8
Layer0$C$L0
 10
-4.147707
 20
1.141484
 11
-4.177986
 21
1.111205
  0
LINE
  8
Layer0$C$L0
 10
-4.009714
 20
1.279477
 11
-4.049564
 21
1.239627
  0
LINE
  8
Layer0$C$L0
 10
-4.147707
 20
1.162696
 11
-4.185119
 21
1.125285
  0
LINE
  8
Layer0$C$L0
 10
-4.019567
 20
1.290838
 11
-4.049564
 21
1.260841
  0
LINE
  8
Layer0$C$L0
 10
-4.147707
 20
1.183910
 11
-4.187810
 21
1.143808
  0
LINE
  8
Layer0$C$L0
 10
-4.040781
 20
1.290838
 11
-4.049564
 21
1.282054
  0
LINE
  8
Layer0$C$L0
 10
-4.147707
 20
1.205123
 11
-4.187810
 21
1.165020
  0
LINE
  8
Layer0$C$L0
 10
-4.147707
 20
1.226336
 11
-4.187810
 21
1.186234
  0
LINE
  8
Layer0$C$L0
 10
-4.147707
 20
1.247549
 11
-4.187810
 21
1.207447
  0
LINE
  8
Layer0$C$L0
 10
-4.147707
 20
1.268763
 11
-4.187810
 21
1.228660
  0
LINE
  8
Layer0$C$L0
 10
-4.147707
 20
1.289976
 11
-4.187810
 21
1.249874
  0
LINE
  8
Layer0$C$L0
 10
-4.168117
 20
1.290780
 11
-4.187810
 21
1.271087
  0
ENDBLK
  8
Layer0$C$L0
  0
BLOCK
  8
Layer0$C$L0
  2
*X3
 70
     1
 10
0.000000
 20
0.000000
  0
LINE
  8
Layer0$C$L0
 10
-3.809394
 20
1.090887
 11
-3.799446
 21
1.100837
  0
LINE
  8
Layer0$C$L0
 10
-3.820657
 20
1.100837
 11
-3.830608
 21
1.090887
  0
LINE
  8
Layer0$C$L0
 10
-3.851821
 20
1.090887
 11
-3.841871
 21
1.100837
  0
LINE
  8
Layer0$C$L0
 10
-3.863084
 20
1.100837
 11
-3.873035
 21
1.090887
  0
LINE
  8
Layer0$C$L0
 10
-3.894247
 20
1.090887
 11
-3.884298
 21
1.100837
  0
LINE
  8
Layer0$C$L0
 10
-3.905511
 20
1.100837
 11
-3.915460
 21
1.090887
  0
LINE
  8
Layer0$C$L0
 10
-3.936674
 20
1.090887
 11
-3.926725
 21
1.100837
  0
LINE
  8
Layer0$C$L0
 10
-3.929611
 20
1.119165
 11
-3.957887
 21
1.090887
  0
LINE
  8
Layer0$C$L0
 10
-3.969812
 20
1.100175
 11
-3.929611
 21
1.140377
  0
LINE
  8
Layer0$C$L0
 10
-3.929611
 20
1.161591
 11
-3.969812
 21
1.121388
  0
LINE
  8
Layer0$C$L0
 10
-3.969812
 20
1.142601
 11
-3.929611
 21
1.182804
  0
LINE
  8
Layer0$C$L0
 10
-3.929611
 20
1.204017
 11
-3.969812
 21
1.163815
  0
LINE
  8
Layer0$C$L0
 10
-3.969812
 20
1.185027
 11
-3.929611
 21
1.225231
  0
LINE
  8
Layer0$C$L0
 10
-3.929611
 20
1.246444
 11
-3.969812
 21
1.206241
  0
LINE
  8
Layer0$C$L0
 10
-3.969812
 20
1.227455
 11
-3.929611
 21
1.267657
  0
LINE
  8
Layer0$C$L0
 10
-3.929611
 20
1.288870
 11
-3.969812
 21
1.248667
  0
LINE
  8
Layer0$C$L0
 10
-3.969812
 20
1.269881
 11
-3.948808
 21
1.290885
  0
ENDBLK
  8
Layer0$C$L0
  0
BLOCK
  8
Layer0$C$L0
  2
*X4
 70
     1
 10
0.000000
 20
0.000000
  0
LINE
  8
Layer0$C$L0
 10
-3.622785
 20
1.090821
 11
-3.573707
 21
1.139898
  0
LINE
  8
Layer0$C$L0
 10
-3.631633
 20
1.103185
 11
-3.644077
 21
1.090742
  0
LINE
  8
Layer0$C$L0
 10
-3.573572
 20
1.161248
 11
-3.616016
 21
1.118803
  0
LINE
  8
Layer0$C$L0
 10
-3.655088
 20
1.100944
 11
-3.665290
 21
1.090742
  0
LINE
  8
Layer0$C$L0
 10
-3.573572
 20
1.182461
 11
-3.613775
 21
1.142258
  0
LINE
  8
Layer0$C$L0
 10
-3.676301
 20
1.100944
 11
-3.686504
 21
1.090742
  0
LINE
  8
Layer0$C$L0
 10
-3.573572
 20
1.203674
 11
-3.613775
 21
1.163472
  0
LINE
  8
Layer0$C$L0
 10
-3.697515
 20
1.100944
 11
-3.707717
 21
1.090742
  0
LINE
  8
Layer0$C$L0
 10
-3.573572
 20
1.224887
 11
-3.613775
 21
1.184684
  0
LINE
  8
Layer0$C$L0
 10
-3.711715
 20
1.107956
 11
-3.728931
 21
1.090742
  0
LINE
  8
Layer0$C$L0
 10
-3.574008
 20
1.245662
 11
-3.613775
 21
1.205898
  0
LINE
  8
Layer0$C$L0
 10
-3.711715
 20
1.129170
 11
-3.750144
 21
1.090742
  0
LINE
  8
Layer0$C$L0
 10
-3.578592
 20
1.262292
 11
-3.613775
 21
1.227111
  0
LINE
  8
Layer0$C$L0
 10
-3.711715
 20
1.150382
 11
-3.751565
 21
1.110533
  0
LINE
  8
Layer0$C$L0
 10
-3.587127
 20
1.274972
 11
-3.613775
 21
1.248324
  0
LINE
  8
Layer0$C$L0
 10
-3.711715
 20
1.171596
 11
-3.751565
 21
1.131747
  0
LINE
  8
Layer0$C$L0
 10
-3.599020
 20
1.284292
 11
-3.617603
 21
1.265708
  0
LINE
  8
Layer0$C$L0
 10
-3.711715
 20
1.192809
 11
-3.751565
 21
1.152960
  0
LINE
  8
Layer0$C$L0
 10
-3.614437
 20
1.290089
 11
-3.628059
 21
1.276465
  0
LINE
  8
Layer0$C$L0
 10
-3.711715
 20
1.214022
 11
-3.751565
 21
1.174173
  0
LINE
  8
Layer0$C$L0
 10
-3.634941
 20
1.290797
 11
-3.644990
 21
1.280747
  0
LINE
  8
Layer0$C$L0
 10
-3.711715
 20
1.235236
 11
-3.751565
 21
1.195386
  0
LINE
  8
Layer0$C$L0
 10
-3.656154
 20
1.290797
 11
-3.666204
 21
1.280747
  0
LINE
  8
Layer0$C$L0
 10
-3.711715
 20
1.256448
 11
-3.751565
 21
1.216600
  0
LINE
  8
Layer0$C$L0
 10
-3.677368
 20
1.290797
 11
-3.687418
 21
1.280747
  0
LINE
  8
Layer0$C$L0
 10
-3.711715
 20
1.277662
 11
-3.751565
 21
1.237812
  0
LINE
  8
Layer0$C$L0
 10
-3.698581
 20
1.290797
 11
-3.708631
 21
1.280747
  0
LINE
  8
Layer0$C$L0
 10
-3.719793
 20
1.290797
 11
-3.751565
 21
1.259026
  0
LINE
  8
Layer0$C$L0
 10
-3.741006
 20
1.290797
 11
-3.751565
 21
1.280239
  0
ENDBLK
  8
Layer0$C$L0
  0
BLOCK
  8
Layer0$C$L0
  2
*X5
 70
     1
 10
0.000000
 20
0.000000
  0
LINE
  8
Layer0$C$L0
 10
-4.799345
 20
1.091867
 11
-4.800053
 21
1.091160
  0
LINE
  8
Layer0$C$L0
 10
-4.699345
 20
1.191867
 11
-4.700053
 21
1.191159
  0
LINE
  8
Layer0$C$L0
 10
-4.799345
 20
1.113080
 11
-4.821267
 21
1.091160
  0
LINE
  8
Layer0$C$L0
 10
-4.699345
 20
1.213081
 11
-4.721266
 21
1.191159
  0
LINE
  8
Layer0$C$L0
 10
-4.799345
 20
1.134294
 11
-4.842480
 21
1.091160
  0
LINE
  8
Layer0$C$L0
 10
-4.699345
 20
1.234293
 11
-4.742480
 21
1.191159
  0
LINE
  8
Layer0$C$L0
 10
-4.799345
 20
1.155506
 11
-4.863692
 21
1.091160
  0
LINE
  8
Layer0$C$L0
 10
-4.699345
 20
1.255507
 11
-4.763693
 21
1.191159
  0
LINE
  8
Layer0$C$L0
 10
-4.799345
 20
1.176720
 11
-4.884905
 21
1.091160
  0
LINE
  8
Layer0$C$L0
 10
-4.699345
 20
1.276719
 11
-4.784905
 21
1.191159
  0
LINE
  8
Layer0$C$L0
 10
-4.705914
 20
1.291365
 11
-4.906119
 21
1.091160
  0
LINE
  8
Layer0$C$L0
 10
-4.727128
 20
1.291365
 11
-4.775778
 21
1.242714
  0
LINE
  8
Layer0$C$L0
 10
-4.748341
 20
1.291365
 11
-4.785923
 21
1.253783
  0
LINE
  8
Layer0$C$L0
 10
-4.769555
 20
1.291365
 11
-4.796069
 21
1.264850
  0
LINE
  8
Layer0$C$L0
 10
-4.790766
 20
1.291365
 11
-4.806214
 21
1.275918
  0
LINE
  8
Layer0$C$L0
 10
-4.799401
 20
1.303944
 11
-4.816359
 21
1.286986
  0
LINE
  8
Layer0$C$L0
 10
-4.799401
 20
1.325156
 11
-4.826504
 21
1.298053
  0
LINE
  8
Layer0$C$L0
 10
-4.799401
 20
1.346370
 11
-4.836649
 21
1.309121
  0
LINE
  8
Layer0$C$L0
 10
-4.799401
 20
1.367584
 11
-4.846797
 21
1.320189
  0
LINE
  8
Layer0$C$L0
 10
-4.799401
 20
1.388796
 11
-4.856942
 21
1.331256
  0
LINE
  8
Layer0$C$L0
 10
-4.817990
 20
1.391420
 11
-4.867087
 21
1.342324
  0
LINE
  8
Layer0$C$L0
 10
-4.839203
 20
1.391420
 11
-4.877232
 21
1.353392
  0
LINE
  8
Layer0$C$L0
 10
-4.860417
 20
1.391420
 11
-4.887377
 21
1.364460
  0
LINE
  8
Layer0$C$L0
 10
-4.881630
 20
1.391420
 11
-4.897522
 21
1.375528
  0
LINE
  8
Layer0$C$L0
 10
-4.902844
 20
1.391420
 11
-4.907668
 21
1.386595
  0
ENDBLK
  8
Layer0$C$L0
  0
BLOCK
  8
Layer0$C$L0
  2
*X6
 70
     1
 10
0.000000
 20
0.000000
  0
LINE
  8
Layer0$C$L0
 10
-4.869452
 20
1.191466
 11
-4.849652
 21
1.211266
  0
LINE
  8
Layer0$C$L0
 10
-4.849652
 20
1.232479
 11
-4.890666
 21
1.191466
  0
LINE
  8
Layer0$C$L0
 10
-4.911877
 20
1.191466
 11
-4.849652
 21
1.253692
  0
LINE
  8
Layer0$C$L0
 10
-4.849652
 20
1.274905
 11
-4.933091
 21
1.191466
  0
LINE
  8
Layer0$C$L0
 10
-4.954304
 20
1.191466
 11
-4.854453
 21
1.291318
  0
LINE
  8
Layer0$C$L0
 10
-4.875666
 20
1.291318
 11
-4.975518
 21
1.191466
  0
LINE
  8
Layer0$C$L0
 10
-4.996731
 20
1.191466
 11
-4.896880
 21
1.291318
  0
LINE
  8
Layer0$C$L0
 10
-4.918093
 20
1.291318
 11
-5.011866
 21
1.197544
  0
LINE
  8
Layer0$C$L0
 10
-5.011866
 20
1.218758
 11
-4.939307
 21
1.291318
  0
LINE
  8
Layer0$C$L0
 10
-4.960520
 20
1.291318
 11
-5.011866
 21
1.239970
  0
LINE
  8
Layer0$C$L0
 10
-5.011866
 20
1.261184
 11
-4.981732
 21
1.291318
  0
LINE
  8
Layer0$C$L0
 10
-5.002945
 20
1.291318
 11
-5.011866
 21
1.282398
  0
ENDBLK
  8
Layer0$C$L0
  0
BLOCK
  8
Layer0$C$L0
  2
TOPSET7_16
 70
     0
 10
0.000000
 20
0.000000
  0
LINE
  8
Layer0$C$L0
 10
0.1093749745
 20
-6.3147700414E-02
 11
2.5498052844E-08
 21
-0.1262953567
  0
LINE
  8
Layer0$C$L0
 10
-2.5498052894E-08
 20
-0.1262953567
 11
-0.1093749745
 21
-6.3147700414E-02
  0
LINE
  8
Layer0$C$L0
 10
-0.1093750000
 20
-6.3147656250E-02
 11
-0.1093750000
 21
6.3147656250E-02
  0
LINE
  8
Layer0$C$L0
 10
-0.1093749745
 20
6.3147700414E-02
 11
-2.5498052800E-08
 21
0.1262953567
  0
LINE
  8
Layer0$C$L0
 10
2.5498052844E-08
 20
0.1262953567
 11
0.1093749745
 21
6.3147700414E-02
  0
LINE
  8
Layer0$C$L0
 10
0.1093750000
 20
6.3147656250E-02
 11
0.1093750000
 21
-6.3147656250E-02
  0
CIRCLE
  8
Layer0$C$L0
  6
DASHED
 10
0.0000000000
 20
0.0000000000
 40
0.2187500000
  0
CIRCLE
  8
Layer0$C$L0
 10
0.0000000000
 20
0.0000000000
 40
0.1750000000
  0
ENDBLK
  8
Layer0$C$L0
  0
BLOCK
  8
Layer0$C$L0
  2
REV-LINESP
 70
     0
 10
0.000000
 20
0.000000
  0
POINT
  8
Layer0$C$L0
 10
0.000000
 20
0.000000
  0
LINE
  8
Layer0$C$L0
 10
0.000000
 20
-0.200000
 11
0.000000
 21
0.000000
  0
LINE
  8
Layer0$C$L0
 10
-0.375000
 20
-0.200000
 11
-0.375000
 21
0.000000
  0
LINE
  8
Layer0$C$L0
 10
-0.750000
 20
-0.200000
 11
-0.750000
 21
0.000000
  0
LINE
  8
Layer0$C$L0
 10
-3.000000
 20
-0.200000
 11
-3.000000
 21
0.000000
  0
LINE
  8
Layer0$C$L0
 10
-3.375000
 20
-0.200000
 11
-3.375000
 21
0.000000
  0
LINE
  8
Layer0$C$L0
 10
-4.000000
 20
-0.200000
 11
-4.000000
 21
0.000000
  0
LINE
  8
Layer0$C$L0
 10
-4.375000
 20
-0.200000
 11
-4.375000
 21
0.000000
  0
LINE
  8
Layer0$C$L0
 10
-4.375000
 20
-0.200000
 11
0.000000
 21
-0.200000
  0
ENDBLK
  8
Layer0$C$L0
  0
BLOCK
  8
Layer0$C$L0
  2
BP
 70
     0
 10
0.000000
 20
0.000000
  0
INSERT
  8
Layer0$C$L0
  2
NEWTITLE
 10
7.657000
 20
-4.906250
  0
INSERT
  8
Layer0$C$L0
  2
REV-HEADINGP
 10
7.657000
 20
4.906250
  0
POINT
  8
Layer0$C$L0
 10
7.657000
 20
4.906250
  0
INSERT
  8
Layer0$C$L0
 66
     1
  2
Cadra_attr_0
 10
0.000000
 20
0.000000
  0
ATTRIB
  8
Layer0$C$L0
 10
8.032000
 20
-5.281250
 40
0.156000
  1
HP7585  08.032  -05.281  00
  2
2
 70
    11
  0
SEQEND
  8
Layer0$C$L0
  0
INSERT
  8
Layer0$C$L0
 66
     1
  2
Cadra_attr_1
 10
0.000000
 20
0.000000
  0
ATTRIB
  8
Layer0$C$L0
 10
8.032000
 20
-4.936250
 40
0.156000
  1
HP7550  08.032  -04.936  00
  2
1
 70
    11
  0
SEQEND
  8
Layer0$C$L0
  0
INSERT
  8
Layer0$C$L0
 66
     1
  2
Cadra_attr_2
 10
0.000000
 20
0.000000
  0
ATTRIB
  8
Layer0$C$L0
 10
-7.718000
 20
5.218750
 40
0.156000
  1
HP7596  -07.718  05.219  180
  2
3
 70
    11
  0
SEQEND
  8
Layer0$C$L0
  0
LINE
  8
Layer0$C$L0
 10
-7.657001
 20
4.906250
 11
7.657000
 21
4.906250
  0
LINE
  8
Layer0$C$L0
 10
-7.657001
 20
4.906250
 11
-7.657001
 21
-4.906250
  0
LINE
  8
Layer0$C$L0
 10
7.654999
 20
-4.906250
 11
-7.657001
 21
-4.906250
  0
LINE
  8
Layer0$C$L0
 10
7.657000
 20
4.906250
 11
7.657000
 21
-4.906250
  0
ENDBLK
  8
Layer0$C$L0
  0
BLOCK
  8
Layer0$C$L0
  2
NEWTITLE
 70
     0
 10
0.000000
 20
0.000000
  0
INSERT
  8
Layer0$C$L0
  2
*X0
 10
0.000000
 20
0.000000
  0
INSERT
  8
Layer0$C$L0
  2
*X1
 10
0.000000
 20
0.000000
  0
INSERT
  8
Layer0$C$L0
  2
*X2
 10
0.000000
 20
0.000000
  0
INSERT
  8
Layer0$C$L0
  2
*X3
 10
0.000000
 20
0.000000
  0
INSERT
  8
Layer0$C$L0
  2
*X4
 10
0.000000
 20
0.000000
  0
INSERT
  8
Layer0$C$L0
  2
*X5
 10
0.000000
 20
0.000000
  0
INSERT
  8
Layer0$C$L0
  2
*X6
 10
0.000000
 20
0.000000
  0
TEXT
  8
Layer0$C$L0
 10
-2.370969
 20
1.281389
 40
4.687500E-02
  1
SPECIFIED: .XXXX%%p.0005;, .XXX%%p.005;, .XX%%p.01;,
 72
     5
 11
-0.227253
 21
1.281389
  0
TEXT
  8
Layer0$C$L0
 10
-2.370969
 20
1.211076
 40
4.687500E-02
  1
.X%%p.02;  X/X%%p1/32
 72
     5
 11
-1.586628
 21
1.211076
  0
TEXT
  8
Layer0$C$L0
 10
-4.979852
 20
0.252570
 40
4.687500E-02
  1
DESCRIPTION
 72
     5
 11
-4.476761
 21
0.252570
  0
TEXT
  8
Layer0$C$L0
 10
-4.979852
 20
0.568051
 40
4.687500E-02
  1
CHECKED BY:
 72
     5
 11
-4.476761
 21
0.568051
  0
TEXT
  8
Layer0$C$L0
 10
-4.979852
 20
0.901110
 40
4.687500E-02
  1
DRAWN BY:
 72
     5
 11
-4.570511
 21
0.901110
  0
TEXT
  8
Layer0$C$L0
 10
-1.871299
 20
0.252570
 40
4.687500E-02
  1
IDENTIFICATION NO. & REVISION
 72
     5
 11
-0.524459
 21
0.252570
  0
TEXT
  8
Layer0$C$L0
 10
-2.364801
 20
1.361413
 40
4.687500E-02
  1
TOLERANCE TO BE APPLIED UNLESS OTHERWISE
 72
     5
 11
-0.502335
 21
1.361413
  0
TEXT
  8
Layer0$C$L0
 10
-2.364801
 20
1.135219
 40
4.687500E-02
  1
UNSPECIFIED ANGLES%%p1%%d, SPECIFIED ANGLES%%pO%%d30'
 72
     5
 11
-0.267960
 21
1.135219
  0
TEXT
  8
Layer0$C$L0
 10
-2.364801
 20
1.052206
 40
4.687500E-02
  1
DIMENSIONS APPLY AFTER PLATING
 72
     5
 11
-0.971085
 21
1.052206
  0
TEXT
  8
Layer0$C$L0
 10
-2.364801
 20
0.943561
 40
4.687500E-02
  1
ALL SURFACES TO BE 125  UNLESS OTHERWISE SPECIFIED
 72
     5
 11
-3.358502E-02
 21
0.943561
  0
TEXT
  8
Layer0$C$L0
 10
-2.364801
 20
0.811332
 40
4.687500E-02
  1
BREAK ALL SHARP EDGES
 72
     5
 11
-1.392960
 21
0.811332
  0
TEXT
  8
Layer0$C$L0
 10
-2.444901
 20
0.381535
 40
6.300000E-02
  1
REFDOC:
 72
     5
 11
-2.020748
 21
0.381535
  0
TEXT
  8
Layer0$C$L0
 10
-2.364801
 20
0.736318
 40
4.687500E-02
  1
THIS DRAWING AND ALL INFORMATION THERE ON IS THE
 72
     5
 11
-0.127335
 21
0.736318
  0
TEXT
  8
Layer0$C$L0
 10
-2.364801
 20
0.666005
 40
4.687500E-02
  1
PROPERTY OF GOULD INC. AND IS SUBJECT TO RETURN ON
 72
     5
 11
-3.358502E-02
 21
0.666005
  0
TEXT
  8
Layer0$C$L0
 10
-2.364801
 20
0.595693
 40
4.687500E-02
  1
DEMAND.  THIS INFORMATION IS CONFIDENTIAL AND MUST
 72
     5
 11
-3.358502E-02
 21
0.595693
  0
TEXT
  8
Layer0$C$L0
 10
-2.364801
 20
0.525380
 40
4.687500E-02
  1
NOT BE MADE PUBLIC OR COPIED UNLESS AUTHORIZED.
 72
     5
 11
-0.174210
 21
0.525380
  0
TEXT
  8
Layer0$C$L0
 10
-3.135691
 20
0.907278
 40
4.687500E-02
  1
INIT. REL.
 72
     5
 11
-2.679475
 21
0.907278
  0
TEXT
  8
Layer0$C$L0
 10
-3.006168
 20
0.418541
 40
6.300000E-02
  1
NONE
 72
     5
 11
-2.771014
 21
0.418541
  0
TEXT
  8
Layer0$C$L0
 10
-3.111019
 20
0.574219
 40
4.687500E-02
  1
SCALE:
 72
     5
 11
-2.842304
 21
0.574219
  0
TEXT
  8
Layer0$C$L0
 10
-3.653783
 20
0.574219
 40
4.687500E-02
  1
DATE:
 72
     5
 11
-3.431942
 21
0.574219
  0
TEXT
  8
Layer0$C$L0
 10
-3.519015
 20
1.160825
 40
4.687500E-02
  1
P.O. BOX 729
 72
     5
 11
-2.969049
 21
1.160825
  0
TEXT
  8
Layer0$C$L0
 10
-3.515032
 20
1.089139
 40
4.687500E-02
  1
MARBLE FALLS, TX 78654
 72
     5
 11
-2.496317
 21
1.089139
  0
TEXT
  8
Layer0$C$L0
 10
-3.659951
 20
0.901110
 40
4.687500E-02
  1
DATE:
 72
     5
 11
-3.438110
 21
0.901110
  0
TEXT
  8
Layer0$C$L0
 10
-3.522998
 20
1.232512
 40
4.687500E-02
  1
GOULD INC.
 72
     5
 11
-3.066782
 21
1.232512
  0
TEXT
  8
Layer0$C$L0
 10
-5.004523
 20
0.999400
 40
6.000000E-02
  1
CIRCUIT PROTECTION DIV.
 72
     5
 11
-3.640567
 21
0.999400
  0
POINT
  8
Layer0$C$L0
 10
-1.988487
 20
0.413035
  0
LINE
  8
Layer0$C$L0
 10
-5.041019
 20
0.650082
 11
-2.475740
 21
0.650082
  0
LINE
  8
Layer0$C$L0
 10
-2.475740
 20
0.493216
 11
-4.263256E-14
 21
0.493216
  0
LINE
  8
Layer0$C$L0
 10
-5.041019
 20
1.436883
 11
-5.684342E-14
 21
1.436883
  0
LINE
  8
Layer0$C$L0
 10
-1.902138
 20
0.000000
 11
-1.902138
 21
0.326275
  0
LINE
  8
Layer0$C$L0
 10
-5.041019
 20
0.326275
 11
-5.684342E-14
 21
0.326275
  0
LINE
  8
Layer0$C$L0
 10
-3.141859
 20
0.326275
 11
-3.141859
 21
0.973890
  0
LINE
  8
Layer0$C$L0
 10
-2.475740
 20
0.326275
 11
-2.475740
 21
1.436883
  0
LINE
  8
Layer0$C$L0
 10
-5.041019
 20
0.973890
 11
-2.475740
 21
0.973890
  0
LINE
  8
Layer0$C$L0
 10
-5.041019
 20
0.000000
 11
-5.041019
 21
1.436883
  0
LINE
  8
Layer0$C$L0
 10
-5.012015
 20
1.291330
 11
-4.849514
 21
1.291330
  0
LINE
  8
Layer0$C$L0
 10
-4.849514
 20
1.291330
 11
-4.849514
 21
1.191329
  0
LINE
  8
Layer0$C$L0
 10
-4.849514
 20
1.191329
 11
-5.012015
 21
1.191329
  0
LINE
  8
Layer0$C$L0
 10
-5.012015
 20
1.191329
 11
-5.012015
 21
1.291330
  0
LINE
  8
Layer0$C$L0
 10
-4.912014
 20
1.391329
 11
-4.774516
 21
1.241329
  0
LINE
  8
Layer0$C$L0
 10
-4.774516
 20
1.241329
 11
-4.912014
 21
1.091330
  0
LINE
  8
Layer0$C$L0
 10
-4.912014
 20
1.091330
 11
-4.799515
 21
1.091330
  0
LINE
  8
Layer0$C$L0
 10
-4.799515
 20
1.091330
 11
-4.799515
 21
1.191329
  0
LINE
  8
Layer0$C$L0
 10
-4.799515
 20
1.191329
 11
-4.699515
 21
1.191329
  0
LINE
  8
Layer0$C$L0
 10
-4.699515
 20
1.191329
 11
-4.699515
 21
1.291330
  0
LINE
  8
Layer0$C$L0
 10
-4.699515
 20
1.291330
 11
-4.799515
 21
1.291330
  0
LINE
  8
Layer0$C$L0
 10
-4.799515
 20
1.291330
 11
-4.799515
 21
1.391329
  0
LINE
  8
Layer0$C$L0
 10
-4.799515
 20
1.391329
 11
-4.912014
 21
1.391329
  0
LINE
  8
Layer0$C$L0
 10
-3.791704
 20
1.100873
 11
-3.791704
 21
1.090874
  0
LINE
  8
Layer0$C$L0
 10
-3.969703
 20
1.290874
 11
-3.929704
 21
1.290874
  0
LINE
  8
Layer0$C$L0
 10
-4.049703
 20
1.290874
 11
-4.009704
 21
1.290874
  0
LINE
  8
Layer0$C$L0
 10
-4.187704
 20
1.290874
 11
-4.147705
 21
1.290874
  0
LINE
  8
Layer0$C$L0
 10
-3.573703
 20
1.140873
 11
-3.573703
 21
1.240874
  0
LINE
  8
Layer0$C$L0
 10
-3.751705
 20
1.090874
 11
-3.751705
 21
1.290874
  0
LINE
  8
Layer0$C$L0
 10
-3.613704
 20
1.130874
 11
-3.613704
 21
1.250874
  0
LINE
  8
Layer0$C$L0
 10
-3.711704
 20
1.100873
 11
-3.711704
 21
1.280874
  0
LINE
  8
Layer0$C$L0
 10
-3.751705
 20
1.090874
 11
-3.623704
 21
1.090874
  0
LINE
  8
Layer0$C$L0
 10
-3.751705
 20
1.290874
 11
-3.623704
 21
1.290874
  0
LINE
  8
Layer0$C$L0
 10
-3.711704
 20
1.100873
 11
-3.643703
 21
1.100873
  0
LINE
  8
Layer0$C$L0
 10
-3.711704
 20
1.280874
 11
-3.643703
 21
1.280874
  0
ARC
  8
Layer0$C$L0
 10
-3.623704
 20
1.140873
 40
5.000000E-02
 50
270.000001
 51
360.000010
  0
ARC
  8
Layer0$C$L0
 10
-3.623704
 20
1.240874
 40
5.000000E-02
 50
0.000000
 51
90.000003
  0
ARC
  8
Layer0$C$L0
 10
-3.643703
 20
1.130874
 40
3.000000E-02
 50
270.000001
 51
360.000010
  0
ARC
  8
Layer0$C$L0
 10
-3.643703
 20
1.250874
 40
3.000000E-02
 50
1.001791E-05
 51
89.999989
  0
LINE
  8
Layer0$C$L0
 10
-3.969703
 20
1.090874
 11
-3.969703
 21
1.290874
  0
LINE
  8
Layer0$C$L0
 10
-3.929704
 20
1.100873
 11
-3.929704
 21
1.290874
  0
LINE
  8
Layer0$C$L0
 10
-3.969703
 20
1.090874
 11
-3.791704
 21
1.090874
  0
LINE
  8
Layer0$C$L0
 10
-3.929704
 20
1.100873
 11
-3.791704
 21
1.100873
  0
LINE
  8
Layer0$C$L0
 10
-4.227705
 20
1.140873
 11
-4.227705
 21
1.240874
  0
LINE
  8
Layer0$C$L0
 10
-4.405706
 20
1.140873
 11
-4.405706
 21
1.240874
  0
LINE
  8
Layer0$C$L0
 10
-4.267704
 20
1.130874
 11
-4.267704
 21
1.250874
  0
LINE
  8
Layer0$C$L0
 10
-4.365705
 20
1.130874
 11
-4.365705
 21
1.250874
  0
LINE
  8
Layer0$C$L0
 10
-4.355705
 20
1.090874
 11
-4.277704
 21
1.090874
  0
LINE
  8
Layer0$C$L0
 10
-4.355705
 20
1.290874
 11
-4.277704
 21
1.290874
  0
LINE
  8
Layer0$C$L0
 10
-4.335706
 20
1.100873
 11
-4.297704
 21
1.100873
  0
LINE
  8
Layer0$C$L0
 10
-4.335706
 20
1.280874
 11
-4.297704
 21
1.280874
  0
ARC
  8
Layer0$C$L0
 10
-4.355705
 20
1.140873
 40
5.000000E-02
 50
180.000005
 51
270.000001
  0
ARC
  8
Layer0$C$L0
 10
-4.277704
 20
1.140873
 40
5.000000E-02
 50
270.000001
 51
360.000010
  0
ARC
  8
Layer0$C$L0
 10
-4.277704
 20
1.240874
 40
5.000000E-02
 50
0.000000
 51
90.000003
  0
ARC
  8
Layer0$C$L0
 10
-4.355705
 20
1.240874
 40
5.000000E-02
 50
90.000003
 51
180.000005
  0
ARC
  8
Layer0$C$L0
 10
-4.335706
 20
1.130874
 40
3.000000E-02
 50
180.000005
 51
270.000001
  0
ARC
  8
Layer0$C$L0
 10
-4.297704
 20
1.130874
 40
3.000000E-02
 50
270.000001
 51
360.000010
  0
ARC
  8
Layer0$C$L0
 10
-4.297704
 20
1.250874
 40
3.000000E-02
 50
1.001791E-05
 51
89.999989
  0
ARC
  8
Layer0$C$L0
 10
-4.335706
 20
1.250874
 40
3.000000E-02
 50
90.000003
 51
180.000005
  0
ARC
  8
Layer0$C$L0
 10
-4.505706
 20
1.157874
 40
2.000000E-02
 50
0.000000
 51
90.000003
  0
LINE
  8
Layer0$C$L0
 10
-4.445705
 20
1.140873
 11
-4.445705
 21
1.190874
  0
LINE
  8
Layer0$C$L0
 10
-4.485706
 20
1.130874
 11
-4.485706
 21
1.157874
  0
LINE
  8
Layer0$C$L0
 10
-4.485706
 20
1.215874
 11
-4.445705
 21
1.215874
  0
LINE
  8
Layer0$C$L0
 10
-4.445705
 20
1.215874
 11
-4.445705
 21
1.240874
  0
LINE
  8
Layer0$C$L0
 10
-4.623706
 20
1.140873
 11
-4.623706
 21
1.240874
  0
LINE
  8
Layer0$C$L0
 10
-4.485706
 20
1.215874
 11
-4.485706
 21
1.250874
  0
LINE
  8
Layer0$C$L0
 10
-4.583705
 20
1.130874
 11
-4.583705
 21
1.250874
  0
LINE
  8
Layer0$C$L0
 10
-4.573705
 20
1.090874
 11
-4.495706
 21
1.090874
  0
LINE
  8
Layer0$C$L0
 10
-4.573705
 20
1.290874
 11
-4.495706
 21
1.290874
  0
LINE
  8
Layer0$C$L0
 10
-4.553707
 20
1.100873
 11
-4.515705
 21
1.100873
  0
LINE
  8
Layer0$C$L0
 10
-4.553707
 20
1.280874
 11
-4.515705
 21
1.280874
  0
ARC
  8
Layer0$C$L0
 10
-4.573705
 20
1.140873
 40
5.000000E-02
 50
180.000005
 51
270.000001
  0
ARC
  8
Layer0$C$L0
 10
-4.495706
 20
1.140873
 40
5.000000E-02
 50
270.000001
 51
360.000010
  0
ARC
  8
Layer0$C$L0
 10
-4.495706
 20
1.240874
 40
5.000000E-02
 50
0.000000
 51
90.000003
  0
ARC
  8
Layer0$C$L0
 10
-4.573705
 20
1.240874
 40
5.000000E-02
 50
90.000003
 51
180.000005
  0
ARC
  8
Layer0$C$L0
 10
-4.553707
 20
1.130874
 40
3.000000E-02
 50
180.000005
 51
270.000001
  0
ARC
  8
Layer0$C$L0
 10
-4.515705
 20
1.130874
 40
3.000000E-02
 50
270.000001
 51
360.000010
  0
ARC
  8
Layer0$C$L0
 10
-4.515705
 20
1.250874
 40
3.000000E-02
 50
1.001791E-05
 51
89.999989
  0
ARC
  8
Layer0$C$L0
 10
-4.553707
 20
1.250874
 40
3.000000E-02
 50
90.000003
 51
180.000005
  0
ARC
  8
Layer0$C$L0
 10
-4.079704
 20
1.130874
 40
3.000000E-02
 50
270.000001
 51
360.000010
  0
ARC
  8
Layer0$C$L0
 10
-4.117704
 20
1.130874
 40
3.000000E-02
 50
180.000005
 51
270.000001
  0
ARC
  8
Layer0$C$L0
 10
-4.059703
 20
1.140873
 40
5.000000E-02
 50
270.000001
 51
360.000010
  0
ARC
  8
Layer0$C$L0
 10
-4.137704
 20
1.140873
 40
5.000000E-02
 50
180.000005
 51
270.000001
  0
LINE
  8
Layer0$C$L0
 10
-4.117704
 20
1.100873
 11
-4.079704
 21
1.100873
  0
LINE
  8
Layer0$C$L0
 10
-4.137704
 20
1.090874
 11
-4.059703
 21
1.090874
  0
LINE
  8
Layer0$C$L0
 10
-4.147705
 20
1.130874
 11
-4.147705
 21
1.290874
  0
LINE
  8
Layer0$C$L0
 10
-4.049703
 20
1.130874
 11
-4.049703
 21
1.290874
  0
LINE
  8
Layer0$C$L0
 10
-4.187704
 20
1.140873
 11
-4.187704
 21
1.290874
  0
LINE
  8
Layer0$C$L0
 10
-4.009704
 20
1.140873
 11
-4.009704
 21
1.290874
  0
LINE
  8
Layer0$C$L0
 10
-4.530706
 20
1.177874
 11
-4.530706
 21
1.190874
  0
LINE
  8
Layer0$C$L0
 10
-4.530706
 20
1.177874
 11
-4.505706
 21
1.177874
  0
LINE
  8
Layer0$C$L0
 10
-4.530706
 20
1.190874
 11
-4.445705
 21
1.190874
  0
LINE
  8
Layer0$C$L0
 10
-1.368988
 20
0.887476
 11
-1.396059
 21
0.934364
  0
LINE
  8
Layer0$C$L0
 10
-1.368988
 20
0.887476
 11
-1.291639
 21
1.021448
  0
ENDBLK
  8
Layer0$C$L0
  0
BLOCK
  8
Layer0$C$L0
  2
REV-HEADINGP
 70
     0
 10
0.000000
 20
0.000000
  0
TEXT
  8
Layer0$C$L0
 10
-0.271321
 20
-0.141521
 40
6.250000E-02
  1
CK
 72
     5
 11
-0.163033
 21
-0.141521
  0
TEXT
  8
Layer0$C$L0
 10
-0.641315
 20
-0.141704
 40
6.250000E-02
  1
BY
 72
     5
 11
-0.533027
 21
-0.141704
  0
TEXT
  8
Layer0$C$L0
 10
-2.220139
 20
-0.141521
 40
6.250000E-02
  1
DESCRIPTION
 72
     5
 11
-1.549351
 21
-0.141521
  0
TEXT
  8
Layer0$C$L0
 10
-3.281666
 20
-0.141521
 40
6.250000E-02
  1
ECO
 72
     5
 11
-3.110879
 21
-0.141521
  0
TEXT
  8
Layer0$C$L0
 10
-3.814410
 20
-0.141521
 40
6.250000E-02
  1
DATE
 72
     5
 11
-3.581123
 21
-0.141521
  0
TEXT
  8
Layer0$C$L0
 10
-4.289352
 20
-0.141521
 40
6.250000E-02
  1
REV
 72
     5
 11
-4.118564
 21
-0.141521
  0
LINE
  8
Layer0$C$L0
 10
0.000000
 20
-0.200000
 11
0.000000
 21
0.000000
  0
LINE
  8
Layer0$C$L0
 10
-0.375000
 20
-0.200000
 11
-0.375000
 21
0.000000
  0
LINE
  8
Layer0$C$L0
 10
-0.750000
 20
-0.200000
 11
-0.750000
 21
0.000000
  0
LINE
  8
Layer0$C$L0
 10
-3.000000
 20
-0.200000
 11
-3.000000
 21
0.000000
  0
LINE
  8
Layer0$C$L0
 10
-3.375000
 20
-0.200000
 11
-3.375000
 21
0.000000
  0
LINE
  8
Layer0$C$L0
 10
-4.000000
 20
-0.200000
 11
-4.000000
 21
0.000000
  0
LINE
  8
Layer0$C$L0
 10
-4.375000
 20
-0.200000
 11
-4.375000
 21
0.000000
  0
LINE
  8
Layer0$C$L0
 10
-4.375000
 20
-0.200000
 11
0.000000
 21
-0.200000
  0
ENDBLK
  8
Layer0$C$L0
  0
BLOCK
  8
Layer0$C$L0
  2
Cadra_attr_0
 70
     2
 10
0.000000
 20
0.000000
  0
POINT
  8
Layer0$C$L0
 10
8.032000
 20
-5.281250
  0
ATTDEF
  8
Layer0$C$L0
 10
8.032000
 20
-5.281250
 40
0.156000
  1
HP7585  08.032  -05.281  00
  3

  2
2
 70
    11
  0
ENDBLK
  8
Layer0$C$L0
  0
BLOCK
  8
Layer0$C$L0
  2
Cadra_attr_1
 70
     2
 10
0.000000
 20
0.000000
  0
POINT
  8
Layer0$C$L0
 10
8.032000
 20
-4.936250
  0
ATTDEF
  8
Layer0$C$L0
 10
8.032000
 20
-4.936250
 40
0.156000
  1
HP7550  08.032  -04.936  00
  3

  2
1
 70
    11
  0
ENDBLK
  8
Layer0$C$L0
  0
BLOCK
  8
Layer0$C$L0
  2
Cadra_attr_2
 70
     2
 10
0.000000
 20
0.000000
  0
POINT
  8
Layer0$C$L0
 10
-7.718000
 20
5.218750
  0
ATTDEF
  8
Layer0$C$L0
 10
-7.718000
 20
5.218750
 40
0.156000
  1
HP7596  -07.718  05.219  180
  3

  2
3
 70
    11
  0
ENDBLK
  8
Layer0$C$L0
  0
ENDSEC
  0
SECTION
  2
ENTITIES
  0
TEXT
  8
Layer0$C$L0
 10
9.498012
 20
-4.417157
 40
0.125000
  1
KDS    2/95
 72
     5
 11
10.840012
 21
-4.417157
  0
POLYLINE
  8
Layer0$C$L0
 66
     1
  0
VERTEX
  8
Layer0$C$L0
 10
4.5030293465
 20
1.1444859505
  0
VERTEX
  8
Layer0$C$L0
 10
5.5909457806
 20
0.8813928962
  0
VERTEX
  8
Layer0$C$L0
 10
5.7139457840
 20
0.8813928962
  0
SEQEND
  8
Layer0$C$L0
  0
SOLID
  8
Layer0$C$L0
 62
     0
 10
4.6445912514
 20
1.0789403677
 11
4.6588987016
 21
1.1381031238
 12
4.5030293465
 22
1.1444859505
 13
4.5030293465
 23
1.1444859505
  0
POLYLINE
  8
Layer0$C$L0
 66
     1
 70
     1
  0
VERTEX
  8
Layer0$C$L0
 10
5.7142357841
 20
1.0063928962
  0
VERTEX
  8
Layer0$C$L0
 10
5.9312360108
 20
1.0063928962
  0
VERTEX
  8
Layer0$C$L0
 10
5.9312360108
 20
0.7563928962
  0
VERTEX
  8
Layer0$C$L0
 10
5.7142357841
 20
0.7563928962
  0
SEQEND
  8
Layer0$C$L0
  0
TEXT
  8
Layer0$C$L0
 10
5.7767357841
 20
0.8188928962
 40
0.1250000000
  1
3
 72
     5
 11
5.8687360108
 21
0.8188928962
  0
ARC
  8
Layer0$C$L0
 10
4.322338
 20
2.039200
 40
1.400000E-02
 50
318.897161
 51
360.000010
  0
ARC
  8
Layer0$C$L0
 10
4.322338
 20
2.039200
 40
1.400000E-02
 50
0.000000
 51
101.102844
  0
ARC
  8
Layer0$C$L0
 10
4.322338
 20
1.960800
 40
1.400000E-02
 50
258.897146
 51
360.000010
  0
ARC
  8
Layer0$C$L0
 10
4.322338
 20
1.960800
 40
1.400000E-02
 50
0.000000
 51
41.102842
  0
ARC
  8
Layer0$C$L0
 10
4.186545
 20
1.960800
 40
1.400000E-02
 50
138.897156
 51
281.102856
  0
ARC
  8
Layer0$C$L0
 10
4.254441
 20
1.921600
 40
1.400000E-02
 50
198.897158
 51
341.102844
  0
ARC
  8
Layer0$C$L0
 10
4.310855
 20
2.097712
 40
4.562770E-02
 50
198.897158
 51
281.102828
  0
ARC
  8
Layer0$C$L0
 10
4.367269
 20
2.000000
 40
4.562770E-02
 50
138.897156
 51
221.102840
  0
ARC
  8
Layer0$C$L0
 10
4.310855
 20
1.902288
 40
4.562769E-02
 50
78.897154
 51
161.102839
  0
ARC
  8
Layer0$C$L0
 10
4.198028
 20
1.902288
 40
4.562769E-02
 50
18.897156
 51
101.102844
  0
ARC
  8
Layer0$C$L0
 10
4.141613
 20
2.000000
 40
4.562770E-02
 50
318.897161
 51
360.000010
  0
ARC
  8
Layer0$C$L0
 10
4.141613
 20
2.000000
 40
4.562770E-02
 50
0.000000
 51
41.102839
  0
ARC
  8
Layer0$C$L0
 10
4.186545
 20
2.039200
 40
1.400000E-02
 50
78.897154
 51
221.102840
  0
ARC
  8
Layer0$C$L0
 10
4.254441
 20
2.078400
 40
1.400000E-02
 50
18.897160
 51
161.102839
  0
ARC
  8
Layer0$C$L0
 10
4.198028
 20
2.097712
 40
4.562769E-02
 50
258.897146
 51
341.102844
  0
CIRCLE
  8
Layer0$C$L0
 10
4.254441
 20
2.000000
 40
9.240000E-02
  0
CIRCLE
  8
Layer0$C$L0
 10
4.254441
 20
2.000000
 40
0.182000
  0
ARC
  8
Layer0$C$L0
 10
2.692338
 20
2.039200
 40
1.400000E-02
 50
318.897161
 51
360.000010
  0
ARC
  8
Layer0$C$L0
 10
2.692338
 20
2.039200
 40
1.400000E-02
 50
0.000000
 51
101.102844
  0
ARC
  8
Layer0$C$L0
 10
2.692338
 20
1.960800
 40
1.400000E-02
 50
258.897146
 51
360.000010
  0
ARC
  8
Layer0$C$L0
 10
2.692338
 20
1.960800
 40
1.400000E-02
 50
0.000000
 51
41.102842
  0
ARC
  8
Layer0$C$L0
 10
2.556545
 20
1.960800
 40
1.400000E-02
 50
138.897156
 51
281.102856
  0
ARC
  8
Layer0$C$L0
 10
2.624441
 20
1.921600
 40
1.400000E-02
 50
198.897158
 51
341.102844
  0
ARC
  8
Layer0$C$L0
 10
2.680855
 20
2.097712
 40
4.562770E-02
 50
198.897158
 51
281.102828
  0
ARC
  8
Layer0$C$L0
 10
2.737269
 20
2.000000
 40
4.562770E-02
 50
138.897156
 51
221.102840
  0
ARC
  8
Layer0$C$L0
 10
2.680855
 20
1.902288
 40
4.562769E-02
 50
78.897154
 51
161.102839
  0
ARC
  8
Layer0$C$L0
 10
2.568027
 20
1.902288
 40
4.562769E-02
 50
18.897156
 51
101.102844
  0
ARC
  8
Layer0$C$L0
 10
2.511614
 20
2.000000
 40
4.562770E-02
 50
318.897161
 51
360.000010
  0
ARC
  8
Layer0$C$L0
 10
2.511614
 20
2.000000
 40
4.562770E-02
 50
0.000000
 51
41.102839
  0
ARC
  8
Layer0$C$L0
 10
2.556545
 20
2.039200
 40
1.400000E-02
 50
78.897154
 51
221.102840
  0
ARC
  8
Layer0$C$L0
 10
2.624441
 20
2.078400
 40
1.400000E-02
 50
18.897160
 51
161.102839
  0
ARC
  8
Layer0$C$L0
 10
2.568027
 20
2.097712
 40
4.562769E-02
 50
258.897146
 51
341.102844
  0
CIRCLE
  8
Layer0$C$L0
 10
2.624441
 20
2.000000
 40
9.240000E-02
  0
CIRCLE
  8
Layer0$C$L0
 10
2.624441
 20
2.000000
 40
0.182000
  0
ARC
  8
Layer0$C$L0
 10
1.057338
 20
2.039200
 40
1.400000E-02
 50
318.897161
 51
360.000010
  0
ARC
  8
Layer0$C$L0
 10
1.057338
 20
2.039200
 40
1.400000E-02
 50
0.000000
 51
101.102844
  0
ARC
  8
Layer0$C$L0
 10
1.057338
 20
1.960800
 40
1.400000E-02
 50
258.897146
 51
360.000010
  0
ARC
  8
Layer0$C$L0
 10
1.057338
 20
1.960800
 40
1.400000E-02
 50
0.000000
 51
41.102842
  0
ARC
  8
Layer0$C$L0
 10
0.921545
 20
1.960800
 40
1.400000E-02
 50
138.897156
 51
281.102856
  0
ARC
  8
Layer0$C$L0
 10
0.989441
 20
1.921600
 40
1.400000E-02
 50
198.897158
 51
341.102844
  0
ARC
  8
Layer0$C$L0
 10
1.045855
 20
2.097712
 40
4.562770E-02
 50
198.897158
 51
281.102828
  0
ARC
  8
Layer0$C$L0
 10
1.102269
 20
2.000000
 40
4.562770E-02
 50
138.897156
 51
221.102840
  0
ARC
  8
Layer0$C$L0
 10
1.045855
 20
1.902288
 40
4.562769E-02
 50
78.897154
 51
161.102839
  0
ARC
  8
Layer0$C$L0
 10
0.933028
 20
1.902288
 40
4.562769E-02
 50
18.897156
 51
101.102844
  0
ARC
  8
Layer0$C$L0
 10
0.876614
 20
2.000000
 40
4.562770E-02
 50
318.897161
 51
360.000010
  0
ARC
  8
Layer0$C$L0
 10
0.876614
 20
2.000000
 40
4.562770E-02
 50
0.000000
 51
41.102839
  0
ARC
  8
Layer0$C$L0
 10
0.921545
 20
2.039200
 40
1.400000E-02
 50
78.897154
 51
221.102840
  0
ARC
  8
Layer0$C$L0
 10
0.989441
 20
2.078400
 40
1.400000E-02
 50
18.897160
 51
161.102839
  0
ARC
  8
Layer0$C$L0
 10
0.933028
 20
2.097712
 40
4.562769E-02
 50
258.897146
 51
341.102844
  0
CIRCLE
  8
Layer0$C$L0
 10
0.989441
 20
2.000000
 40
9.240000E-02
  0
CIRCLE
  8
Layer0$C$L0
 10
0.989441
 20
2.000000
 40
0.182000
  0
TEXT
  8
Layer0$C$L0
 10
-0.3028498980
 20
-3.6725041866
 40
0.1000000054
  1
3  P/N 66563 USES STD. SLOT DRIVER
 72
     5
 11
3.0704105378
 21
-3.6725041866
  0
TEXT
  8
Layer0$C$L0
 10
-0.3528499007
 20
-3.8725041933
 40
0.1000000054
  1
   P/N 67563 USES 3/16 SOCKET DRIVER
 72
     5
 11
3.2204105459
 21
-3.8725041933
  0
POLYLINE
  8
Layer0$C$L0
 66
     1
 70
     1
  0
VERTEX
  8
Layer0$C$L0
 10
-0.3528499007
 20
-3.5225041785
  0
VERTEX
  8
Layer0$C$L0
 10
-0.1795896377
 20
-3.5225041785
  0
VERTEX
  8
Layer0$C$L0
 10
-0.1795896377
 20
-3.7225041893
  0
VERTEX
  8
Layer0$C$L0
 10
-0.3528499007
 20
-3.7225041893
  0
SEQEND
  8
Layer0$C$L0
  0
TEXT
  8
Layer0$C$L0
 10
-0.348756
 20
-4.157502
 40
0.100000
  1
2. (1) 2/0-#14 X (6) #2-#14, 3 POLE, 600V.
 72
     5
 11
3.824504
 21
-4.157502
  0
TEXT
  8
Layer0$C$L0
 10
6.704652
 20
0.275718
 40
0.100000
  1
67563
 72
     5
 11
7.177912
 21
0.275718
  0
TEXT
  8
Layer0$C$L0
 10
7.439993
 20
0.275718
 40
0.100000
  1
2/0-#14
 41
0.838053
 72
     5
 11
7.942824
 21
0.275718
  0
TEXT
  8
Layer0$C$L0
 10
7.425227
 20
1.031731
 40
0.100000
  1
2/0-#14
 41
0.838053
 72
     5
 11
7.928059
 21
1.031731
  0
TEXT
  8
Layer0$C$L0
 10
6.675120
 20
1.031731
 40
0.100000
  1
66563
 72
     5
 11
7.148381
 21
1.031731
  0
TEXT
  8
Layer0$C$L0
 10
10.3070154190
 20
1.3200860023
 40
0.1000000054
  1
#2-#3         50
 41
0.7833373667
 72
     5
 11
11.4820215326
 21
1.3200860023
  0
TEXT
  8
Layer0$C$L0
 10
10.2926254272
 20
0.5086788535
 40
0.1000000054
  1
#2-#3         50
 41
0.7833373667
 72
     5
 11
11.4676315408
 21
0.5086788535
  0
TEXT
  8
Layer0$C$L0
 10
10.292625
 20
0.343160
 40
0.100000
  1
#4-#6         35
 41
0.783337
 72
     5
 11
11.467632
 21
0.343160
  0
TEXT
  8
Layer0$C$L0
 10
10.2979650497
 20
0.1829811335
 40
0.1000000054
  1
#8            25
 41
0.7833373667
 72
     5
 11
11.4729711633
 21
0.1829811335
  0
TEXT
  8
Layer0$C$L0
 10
10.2979650497
 20
2.8141234070E-02
 40
0.1000000054
  1
#10-#14       20
 41
0.7833373667
 72
     5
 11
11.4729711633
 21
2.8141234070E-02
  0
TEXT
  8
Layer0$C$L0
 10
10.3025178909
 20
0.7579512000
 40
0.1000000054
  1
#10-#14       20
 41
0.7833373667
 72
     5
 11
11.4775240045
 21
0.7579512000
  0
TEXT
  8
Layer0$C$L0
 10
10.3124103546
 20
0.9854711890
 40
0.1000000054
  1
#8            25
 41
0.7833373667
 72
     5
 11
11.4874164682
 21
0.9854711890
  0
TEXT
  8
Layer0$C$L0
 10
10.292625
 20
1.173422
 40
0.100000
  1
#4-#6         35
 41
0.783337
 72
     5
 11
11.467632
 21
1.173422
  0
TEXT
  8
Layer0$C$L0
 10
9.516189
 20
0.264446
 40
0.100000
  1
#2-#14
 72
     5
 11
10.089449
 21
0.264446
  0
TEXT
  8
Layer0$C$L0
 10
9.545945
 20
1.021108
 40
0.100000
  1
#2-#14
 72
     5
 11
10.119205
 21
1.021108
  0
TEXT
  8
Layer0$C$L0
 10
8.2196617126
 20
8.5908398032E-02
 40
0.1000000054
  1
#8-#14       50
 41
0.7859428496
 72
     5
 11
9.3199817614
 21
8.5908398032E-02
  0
TEXT
  8
Layer0$C$L0
 10
8.2366647720
 20
0.4812429547
 40
0.1000000054
  1
2/0-#6      120
 41
0.7859428496
 72
     5
 11
9.3369848208
 21
0.4812429547
  0
TEXT
  8
Layer0$C$L0
 10
8.2176237106
 20
0.7095944285
 40
0.1000000054
  1
#10-#14       35
 41
0.7833373667
 72
     5
 11
9.3926298242
 21
0.7095944285
  0
TEXT
  8
Layer0$C$L0
 10
8.2275161743
 20
0.9371144176
 40
0.1000000054
  1
#8            40
 41
0.7833373667
 72
     5
 11
9.4025222879
 21
0.9371144176
  0
TEXT
  8
Layer0$C$L0
 10
8.207731
 20
1.125066
 40
0.100000
  1
#4-#6         45
 41
0.783337
 72
     5
 11
9.382737
 21
1.125066
  0
TEXT
  8
Layer0$C$L0
 10
8.2769765854
 20
1.2734483480
 40
0.1000000054
  1
2/0-#3       50
 41
0.7859428496
 72
     5
 11
9.3772966342
 21
1.2734483480
  0
DIMENSION
  8
Layer0$C$L0
  2
*D0
 10
-0.4319337606
 20
-2.0189999491
 11
-0.4319337606
 21
-2.5512208939
 13
1.9033670425E-02
 23
-3.2999999523
 14
0.9894412756
 24
-2.0189999491
 50
90.0000000000
  0
DIMENSION
  8
Layer0$C$L0
  2
*D1
 10
6.4024114609
 20
-1.7106681317
 11
6.4024114609
 21
-2.3894741535
 13
7.5912041664
 23
-3.3351681232
 14
8.1102053374
 24
-1.7106681317
 50
90.0000000000
  0
DIMENSION
  8
Layer0$C$L0
  2
*D2
 10
6.9776525497
 20
-2.2106681019
 11
6.9776525497
 21
-2.7331244946
 13
7.5912041664
 23
-3.3351681232
 14
8.1102053374
 24
-2.2106681019
 50
90.0000000000
  0
LINE
  8
Layer0$C$L0
 10
11.226761
 20
-2.084946
 11
11.536438
 21
-2.063293
  0
LINE
  8
Layer0$C$L0
 10
11.223970
 20
-2.045044
 11
11.533648
 21
-2.023389
  0
CIRCLE
  8
Layer0$C$L0
 10
11.3802043647
 20
-2.0541681051
 40
0.1564999968
  0
LINE
  8
Layer0$C$L0
 10
11.2318297581
 20
-2.0043963751
 11
11.5202083595
 21
-1.9842314880
  0
LINE
  8
Layer0$C$L0
 10
11.2531386146
 20
-1.9628086822
 11
11.4933191254
 21
-1.9460140488
  0
LINE
  8
Layer0$C$L0
 10
11.3006650838
 20
-1.9193877216
 11
11.4402122786
 21
-1.9096298775
  0
LINE
  8
Layer0$C$L0
 10
11.2402004512
 20
-2.1241048852
 11
11.5285792153
 21
-2.1039391075
  0
LINE
  8
Layer0$C$L0
 10
11.2670896892
 20
-2.1623222507
 11
11.5072705970
 21
-2.1455268572
  0
ARC
  8
Layer0$C$L0
 10
11.3777127266
 20
-1.9390191734
 40
0.2500000000
 50
244.1564421899
 51
298.3227483361
  0
ARC
  8
Layer0$C$L0
 10
11.7347127348
 20
-1.9390191734
 40
0.2500000000
 50
244.1564421899
 51
298.3227483361
  0
LINE
  8
Layer0$C$L0
 10
11.6240896975
 20
-2.1623222507
 11
11.8642706052
 21
-2.1455268572
  0
LINE
  8
Layer0$C$L0
 10
11.5972004594
 20
-2.1241048852
 11
11.8855792236
 21
-2.1039391075
  0
LINE
  8
Layer0$C$L0
 10
11.6576650920
 20
-1.9193877216
 11
11.7972122868
 21
-1.9096298775
  0
LINE
  8
Layer0$C$L0
 10
11.6101386228
 20
-1.9628086822
 11
11.8503191336
 21
-1.9460140488
  0
LINE
  8
Layer0$C$L0
 10
11.5888297663
 20
-2.0043963751
 11
11.8772083677
 21
-1.9842314880
  0
CIRCLE
  8
Layer0$C$L0
 10
11.7372043729
 20
-2.0541681051
 40
0.1564999968
  0
LINE
  8
Layer0$C$L0
 10
11.580971
 20
-2.045044
 11
11.890648
 21
-2.023389
  0
LINE
  8
Layer0$C$L0
 10
11.583761
 20
-2.084946
 11
11.893438
 21
-2.063293
  0
LINE
  8
Layer0$C$L0
 10
11.938761
 20
-2.084946
 11
12.248440
 21
-2.063293
  0
LINE
  8
Layer0$C$L0
 10
11.935970
 20
-2.045044
 11
12.245649
 21
-2.023389
  0
CIRCLE
  8
Layer0$C$L0
 10
12.0922044069
 20
-2.0541681051
 40
0.1564999968
  0
LINE
  8
Layer0$C$L0
 10
11.9438298003
 20
-2.0043963751
 11
12.2322084017
 21
-1.9842314880
  0
LINE
  8
Layer0$C$L0
 10
11.9651386568
 20
-1.9628086822
 11
12.2053191676
 21
-1.9460140488
  0
LINE
  8
Layer0$C$L0
 10
12.0126651260
 20
-1.9193877216
 11
12.1522123208
 21
-1.9096298775
  0
LINE
  8
Layer0$C$L0
 10
11.9522004934
 20
-2.1241048852
 11
12.2405792575
 21
-2.1039391075
  0
LINE
  8
Layer0$C$L0
 10
11.9790897314
 20
-2.1623222507
 11
12.2192706392
 21
-2.1455268572
  0
ARC
  8
Layer0$C$L0
 10
12.0897127688
 20
-1.9390191734
 40
0.2500000000
 50
244.1564421899
 51
298.3227483361
  0
ARC
  8
Layer0$C$L0
 10
12.0897127688
 20
-1.4390192032
 40
0.2500000000
 50
244.1564421899
 51
298.3227483361
  0
LINE
  8
Layer0$C$L0
 10
11.9790897314
 20
-1.6623222805
 11
12.2192706392
 21
-1.6455268870
  0
LINE
  8
Layer0$C$L0
 10
11.9522004934
 20
-1.6241049151
 11
12.2405792575
 21
-1.6039391373
  0
LINE
  8
Layer0$C$L0
 10
12.0126651260
 20
-1.4193877514
 11
12.1522123208
 21
-1.4096299073
  0
LINE
  8
Layer0$C$L0
 10
11.9651386568
 20
-1.4628087120
 11
12.2053191676
 21
-1.4460140786
  0
LINE
  8
Layer0$C$L0
 10
11.9438298003
 20
-1.5043964049
 11
12.2322084017
 21
-1.4842315178
  0
CIRCLE
  8
Layer0$C$L0
 10
12.0922044069
 20
-1.5541681349
 40
0.1564999968
  0
LINE
  8
Layer0$C$L0
 10
11.935970
 20
-1.545044
 11
12.245649
 21
-1.523389
  0
LINE
  8
Layer0$C$L0
 10
11.938761
 20
-1.584946
 11
12.248440
 21
-1.563293
  0
LINE
  8
Layer0$C$L0
 10
11.583761
 20
-1.584946
 11
11.893438
 21
-1.563293
  0
LINE
  8
Layer0$C$L0
 10
11.580971
 20
-1.545044
 11
11.890648
 21
-1.523389
  0
CIRCLE
  8
Layer0$C$L0
 10
11.7372043729
 20
-1.5541681349
 40
0.1564999968
  0
LINE
  8
Layer0$C$L0
 10
11.5888297663
 20
-1.5043964049
 11
11.8772083677
 21
-1.4842315178
  0
LINE
  8
Layer0$C$L0
 10
11.6101386228
 20
-1.4628087120
 11
11.8503191336
 21
-1.4460140786
  0
LINE
  8
Layer0$C$L0
 10
11.6576650920
 20
-1.4193877514
 11
11.7972122868
 21
-1.4096299073
  0
LINE
  8
Layer0$C$L0
 10
11.5972004594
 20
-1.6241049151
 11
11.8855792236
 21
-1.6039391373
  0
LINE
  8
Layer0$C$L0
 10
11.6240896975
 20
-1.6623222805
 11
11.8642706052
 21
-1.6455268870
  0
ARC
  8
Layer0$C$L0
 10
11.7347127348
 20
-1.4390192032
 40
0.2500000000
 50
244.1564421899
 51
298.3227483361
  0
ARC
  8
Layer0$C$L0
 10
11.3777127266
 20
-1.4390192032
 40
0.2500000000
 50
244.1564421899
 51
298.3227483361
  0
LINE
  8
Layer0$C$L0
 10
11.2670896892
 20
-1.6623222805
 11
11.5072705970
 21
-1.6455268870
  0
LINE
  8
Layer0$C$L0
 10
11.2402004512
 20
-1.6241049151
 11
11.5285792153
 21
-1.6039391373
  0
LINE
  8
Layer0$C$L0
 10
11.3006650838
 20
-1.4193877514
 11
11.4402122786
 21
-1.4096299073
  0
LINE
  8
Layer0$C$L0
 10
11.2531386146
 20
-1.4628087120
 11
11.4933191254
 21
-1.4460140786
  0
LINE
  8
Layer0$C$L0
 10
11.2318297581
 20
-1.5043964049
 11
11.5202083595
 21
-1.4842315178
  0
CIRCLE
  8
Layer0$C$L0
 10
11.3802043647
 20
-1.5541681349
 40
0.1564999968
  0
LINE
  8
Layer0$C$L0
 10
11.223970
 20
-1.545044
 11
11.533648
 21
-1.523389
  0
LINE
  8
Layer0$C$L0
 10
11.226761
 20
-1.584946
 11
11.536438
 21
-1.563293
  0
LINE
  8
Layer0$C$L0
 10
9.591763
 20
-1.584946
 11
9.901440
 21
-1.563293
  0
LINE
  8
Layer0$C$L0
 10
9.588972
 20
-1.545044
 11
9.898649
 21
-1.523389
  0
CIRCLE
  8
Layer0$C$L0
 10
9.7452060431
 20
-1.5541681349
 40
0.1564999968
  0
LINE
  8
Layer0$C$L0
 10
9.5968314365
 20
-1.5043964049
 11
9.8852100380
 21
-1.4842315178
  0
LINE
  8
Layer0$C$L0
 10
9.6181402930
 20
-1.4628087120
 11
9.8583208039
 21
-1.4460140786
  0
LINE
  8
Layer0$C$L0
 10
9.6656667623
 20
-1.4193877514
 11
9.8052139571
 21
-1.4096299073
  0
LINE
  8
Layer0$C$L0
 10
9.6052021297
 20
-1.6241049151
 11
9.8935808938
 21
-1.6039391373
  0
LINE
  8
Layer0$C$L0
 10
9.6320913677
 20
-1.6623222805
 11
9.8722722755
 21
-1.6455268870
  0
ARC
  8
Layer0$C$L0
 10
9.7427144051
 20
-1.4390192032
 40
0.2500000000
 50
244.1564421899
 51
298.3227483361
  0
ARC
  8
Layer0$C$L0
 10
10.0997144133
 20
-1.4390192032
 40
0.2500000000
 50
244.1564421899
 51
298.3227483361
  0
LINE
  8
Layer0$C$L0
 10
9.9890913759
 20
-1.6623222805
 11
10.2292722837
 21
-1.6455268870
  0
LINE
  8
Layer0$C$L0
 10
9.9622021379
 20
-1.6241049151
 11
10.2505809020
 21
-1.6039391373
  0
LINE
  8
Layer0$C$L0
 10
10.0226667705
 20
-1.4193877514
 11
10.1622139653
 21
-1.4096299073
  0
LINE
  8
Layer0$C$L0
 10
9.9751403013
 20
-1.4628087120
 11
10.2153208121
 21
-1.4460140786
  0
LINE
  8
Layer0$C$L0
 10
9.9538314447
 20
-1.5043964049
 11
10.2422100462
 21
-1.4842315178
  0
CIRCLE
  8
Layer0$C$L0
 10
10.1022060513
 20
-1.5541681349
 40
0.1564999968
  0
LINE
  8
Layer0$C$L0
 10
9.945972
 20
-1.545044
 11
10.255650
 21
-1.523389
  0
LINE
  8
Layer0$C$L0
 10
9.948763
 20
-1.584946
 11
10.258440
 21
-1.563293
  0
LINE
  8
Layer0$C$L0
 10
10.303762
 20
-1.584946
 11
10.613441
 21
-1.563293
  0
LINE
  8
Layer0$C$L0
 10
10.300972
 20
-1.545044
 11
10.610651
 21
-1.523389
  0
CIRCLE
  8
Layer0$C$L0
 10
10.4572060853
 20
-1.5541681349
 40
0.1564999968
  0
LINE
  8
Layer0$C$L0
 10
10.3088314787
 20
-1.5043964049
 11
10.5972100802
 21
-1.4842315178
  0
LINE
  8
Layer0$C$L0
 10
10.3301403352
 20
-1.4628087120
 11
10.5703208461
 21
-1.4460140786
  0
LINE
  8
Layer0$C$L0
 10
10.3776668045
 20
-1.4193877514
 11
10.5172139993
 21
-1.4096299073
  0
LINE
  8
Layer0$C$L0
 10
10.3172021719
 20
-1.6241049151
 11
10.6055809360
 21
-1.6039391373
  0
LINE
  8
Layer0$C$L0
 10
10.3440914099
 20
-1.6623222805
 11
10.5842723177
 21
-1.6455268870
  0
ARC
  8
Layer0$C$L0
 10
10.4547144473
 20
-1.4390192032
 40
0.2500000000
 50
244.1564421899
 51
298.3227483361
  0
ARC
  8
Layer0$C$L0
 10
10.4547144473
 20
-1.9390191734
 40
0.2500000000
 50
244.1564421899
 51
298.3227483361
  0
LINE
  8
Layer0$C$L0
 10
10.3440914099
 20
-2.1623222507
 11
10.5842723177
 21
-2.1455268572
  0
LINE
  8
Layer0$C$L0
 10
10.3172021719
 20
-2.1241048852
 11
10.6055809360
 21
-2.1039391075
  0
LINE
  8
Layer0$C$L0
 10
10.3776668045
 20
-1.9193877216
 11
10.5172139993
 21
-1.9096298775
  0
LINE
  8
Layer0$C$L0
 10
10.3301403352
 20
-1.9628086822
 11
10.5703208461
 21
-1.9460140488
  0
LINE
  8
Layer0$C$L0
 10
10.3088314787
 20
-2.0043963751
 11
10.5972100802
 21
-1.9842314880
  0
CIRCLE
  8
Layer0$C$L0
 10
10.4572060853
 20
-2.0541681051
 40
0.1564999968
  0
LINE
  8
Layer0$C$L0
 10
10.300972
 20
-2.045044
 11
10.610651
 21
-2.023389
  0
LINE
  8
Layer0$C$L0
 10
10.303762
 20
-2.084946
 11
10.613441
 21
-2.063293
  0
LINE
  8
Layer0$C$L0
 10
9.948763
 20
-2.084946
 11
10.258440
 21
-2.063293
  0
LINE
  8
Layer0$C$L0
 10
9.945972
 20
-2.045044
 11
10.255650
 21
-2.023389
  0
CIRCLE
  8
Layer0$C$L0
 10
10.1022060513
 20
-2.0541681051
 40
0.1564999968
  0
LINE
  8
Layer0$C$L0
 10
9.9538314447
 20
-2.0043963751
 11
10.2422100462
 21
-1.9842314880
  0
LINE
  8
Layer0$C$L0
 10
9.9751403013
 20
-1.9628086822
 11
10.2153208121
 21
-1.9460140488
  0
LINE
  8
Layer0$C$L0
 10
10.0226667705
 20
-1.9193877216
 11
10.1622139653
 21
-1.9096298775
  0
LINE
  8
Layer0$C$L0
 10
9.9622021379
 20
-2.1241048852
 11
10.2505809020
 21
-2.1039391075
  0
LINE
  8
Layer0$C$L0
 10
9.9890913759
 20
-2.1623222507
 11
10.2292722837
 21
-2.1455268572
  0
ARC
  8
Layer0$C$L0
 10
10.0997144133
 20
-1.9390191734
 40
0.2500000000
 50
244.1564421899
 51
298.3227483361
  0
ARC
  8
Layer0$C$L0
 10
9.7427144051
 20
-1.9390191734
 40
0.2500000000
 50
244.1564421899
 51
298.3227483361
  0
LINE
  8
Layer0$C$L0
 10
9.6320913677
 20
-2.1623222507
 11
9.8722722755
 21
-2.1455268572
  0
LINE
  8
Layer0$C$L0
 10
9.6052021297
 20
-2.1241048852
 11
9.8935808938
 21
-2.1039391075
  0
LINE
  8
Layer0$C$L0
 10
9.6656667623
 20
-1.9193877216
 11
9.8052139571
 21
-1.9096298775
  0
LINE
  8
Layer0$C$L0
 10
9.6181402930
 20
-1.9628086822
 11
9.8583208039
 21
-1.9460140488
  0
LINE
  8
Layer0$C$L0
 10
9.5968314365
 20
-2.0043963751
 11
9.8852100380
 21
-1.9842314880
  0
CIRCLE
  8
Layer0$C$L0
 10
9.7452060431
 20
-2.0541681051
 40
0.1564999968
  0
LINE
  8
Layer0$C$L0
 10
9.588972
 20
-2.045044
 11
9.898649
 21
-2.023389
  0
LINE
  8
Layer0$C$L0
 10
9.591763
 20
-2.084946
 11
9.901440
 21
-2.063293
  0
LINE
  8
Layer0$C$L0
 10
7.956762
 20
-2.084946
 11
8.266439
 21
-2.063293
  0
LINE
  8
Layer0$C$L0
 10
7.953971
 20
-2.045044
 11
8.263649
 21
-2.023389
  0
CIRCLE
  8
Layer0$C$L0
 10
8.1102053374
 20
-2.0541681051
 40
0.1564999968
  0
LINE
  8
Layer0$C$L0
 10
7.9618307308
 20
-2.0043963751
 11
8.2502093323
 21
-1.9842314880
  0
LINE
  8
Layer0$C$L0
 10
7.9831395873
 20
-1.9628086822
 11
8.2233200982
 21
-1.9460140488
  0
LINE
  8
Layer0$C$L0
 10
8.0306660565
 20
-1.9193877216
 11
8.1702132514
 21
-1.9096298775
  0
LINE
  8
Layer0$C$L0
 10
7.9702014240
 20
-2.1241048852
 11
8.2585801881
 21
-2.1039391075
  0
LINE
  8
Layer0$C$L0
 10
7.9970906620
 20
-2.1623222507
 11
8.2372715698
 21
-2.1455268572
  0
ARC
  8
Layer0$C$L0
 10
8.1077136993
 20
-1.9390191734
 40
0.2500000000
 50
244.1564421899
 51
298.3227483361
  0
ARC
  8
Layer0$C$L0
 10
8.4647137076
 20
-1.9390191734
 40
0.2500000000
 50
244.1564421899
 51
298.3227483361
  0
LINE
  8
Layer0$C$L0
 10
8.3540906702
 20
-2.1623222507
 11
8.5942715780
 21
-2.1455268572
  0
LINE
  8
Layer0$C$L0
 10
8.3272014322
 20
-2.1241048852
 11
8.6155801963
 21
-2.1039391075
  0
LINE
  8
Layer0$C$L0
 10
8.3876660648
 20
-1.9193877216
 11
8.5272132596
 21
-1.9096298775
  0
LINE
  8
Layer0$C$L0
 10
8.3401395956
 20
-1.9628086822
 11
8.5803201064
 21
-1.9460140488
  0
LINE
  8
Layer0$C$L0
 10
8.3188307390
 20
-2.0043963751
 11
8.6072093405
 21
-1.9842314880
  0
CIRCLE
  8
Layer0$C$L0
 10
8.4672053456
 20
-2.0541681051
 40
0.1564999968
  0
LINE
  8
Layer0$C$L0
 10
8.310971
 20
-2.045044
 11
8.620649
 21
-2.023389
  0
LINE
  8
Layer0$C$L0
 10
8.313762
 20
-2.084946
 11
8.623440
 21
-2.063293
  0
LINE
  8
Layer0$C$L0
 10
8.668762
 20
-2.084946
 11
8.978440
 21
-2.063293
  0
LINE
  8
Layer0$C$L0
 10
8.665972
 20
-2.045044
 11
8.975650
 21
-2.023389
  0
CIRCLE
  8
Layer0$C$L0
 10
8.8222053796
 20
-2.0541681051
 40
0.1564999968
  0
LINE
  8
Layer0$C$L0
 10
8.6738307730
 20
-2.0043963751
 11
8.9622093745
 21
-1.9842314880
  0
LINE
  8
Layer0$C$L0
 10
8.6951396295
 20
-1.9628086822
 11
8.9353201404
 21
-1.9460140488
  0
LINE
  8
Layer0$C$L0
 10
8.7426660987
 20
-1.9193877216
 11
8.8822132936
 21
-1.9096298775
  0
LINE
  8
Layer0$C$L0
 10
8.6822014662
 20
-2.1241048852
 11
8.9705802303
 21
-2.1039391075
  0
LINE
  8
Layer0$C$L0
 10
8.7090907042
 20
-2.1623222507
 11
8.9492716120
 21
-2.1455268572
  0
ARC
  8
Layer0$C$L0
 10
8.8197137415
 20
-1.9390191734
 40
0.2500000000
 50
244.1564421899
 51
298.3227483361
  0
ARC
  8
Layer0$C$L0
 10
8.8197137415
 20
-1.4390192032
 40
0.2500000000
 50
244.1564421899
 51
298.3227483361
  0
LINE
  8
Layer0$C$L0
 10
8.7090907042
 20
-1.6623222805
 11
8.9492716120
 21
-1.6455268870
  0
LINE
  8
Layer0$C$L0
 10
8.6822014662
 20
-1.6241049151
 11
8.9705802303
 21
-1.6039391373
  0
LINE
  8
Layer0$C$L0
 10
8.7426660987
 20
-1.4193877514
 11
8.8822132936
 21
-1.4096299073
  0
LINE
  8
Layer0$C$L0
 10
8.6951396295
 20
-1.4628087120
 11
8.9353201404
 21
-1.4460140786
  0
LINE
  8
Layer0$C$L0
 10
8.6738307730
 20
-1.5043964049
 11
8.9622093745
 21
-1.4842315178
  0
CIRCLE
  8
Layer0$C$L0
 10
8.8222053796
 20
-1.5541681349
 40
0.1564999968
  0
LINE
  8
Layer0$C$L0
 10
8.665972
 20
-1.545044
 11
8.975650
 21
-1.523389
  0
LINE
  8
Layer0$C$L0
 10
8.668762
 20
-1.584946
 11
8.978440
 21
-1.563293
  0
LINE
  8
Layer0$C$L0
 10
8.313762
 20
-1.584946
 11
8.623440
 21
-1.563293
  0
LINE
  8
Layer0$C$L0
 10
8.310971
 20
-1.545044
 11
8.620649
 21
-1.523389
  0
CIRCLE
  8
Layer0$C$L0
 10
8.4672053456
 20
-1.5541681349
 40
0.1564999968
  0
LINE
  8
Layer0$C$L0
 10
8.3188307390
 20
-1.5043964049
 11
8.6072093405
 21
-1.4842315178
  0
LINE
  8
Layer0$C$L0
 10
8.3401395956
 20
-1.4628087120
 11
8.5803201064
 21
-1.4460140786
  0
LINE
  8
Layer0$C$L0
 10
8.3876660648
 20
-1.4193877514
 11
8.5272132596
 21
-1.4096299073
  0
LINE
  8
Layer0$C$L0
 10
8.3272014322
 20
-1.6241049151
 11
8.6155801963
 21
-1.6039391373
  0
LINE
  8
Layer0$C$L0
 10
8.3540906702
 20
-1.6623222805
 11
8.5942715780
 21
-1.6455268870
  0
ARC
  8
Layer0$C$L0
 10
8.4647137076
 20
-1.4390192032
 40
0.2500000000
 50
244.1564421899
 51
298.3227483361
  0
ARC
  8
Layer0$C$L0
 10
8.1077136993
 20
-1.4390192032
 40
0.2500000000
 50
244.1564421899
 51
298.3227483361
  0
LINE
  8
Layer0$C$L0
 10
7.9970906620
 20
-1.6623222805
 11
8.2372715698
 21
-1.6455268870
  0
LINE
  8
Layer0$C$L0
 10
7.9702014240
 20
-1.6241049151
 11
8.2585801881
 21
-1.6039391373
  0
LINE
  8
Layer0$C$L0
 10
8.0306660565
 20
-1.4193877514
 11
8.1702132514
 21
-1.4096299073
  0
LINE
  8
Layer0$C$L0
 10
7.9831395873
 20
-1.4628087120
 11
8.2233200982
 21
-1.4460140786
  0
LINE
  8
Layer0$C$L0
 10
7.9618307308
 20
-1.5043964049
 11
8.2502093323
 21
-1.4842315178
  0
CIRCLE
  8
Layer0$C$L0
 10
8.1102053374
 20
-1.5541681349
 40
0.1564999968
  0
ARC
  8
Layer0$C$L0
 10
4.2544411421
 20
-1.7999999523
 40
0.2006854191
 50
233.1953815372
 51
306.8046184628
  0
LINE
  8
Layer0$C$L0
 10
4.1056419674
 20
-1.9606853724
 11
4.4032403167
 21
-1.9606853724
  0
CIRCLE
  8
Layer0$C$L0
 10
4.2544411421
 20
-1.7999999523
 40
0.2189999968
  0
LINE
  8
Layer0$C$L0
 10
4.0824003358
 20
-1.9355099503
 11
4.4473993262
 21
-1.9035766765
  0
LINE
  8
Layer0$C$L0
 10
4.0498514523
 20
-1.8781284198
 11
4.4694895208
 21
-1.8414148460
  0
LINE
  8
Layer0$C$L0
 10
4.0362745064
 20
-1.8190870597
 11
4.4726077778
 21
-1.7809128449
  0
LINE
  8
Layer0$C$L0
 10
4.0393927634
 20
-1.7585850587
 11
4.4590308319
 21
-1.7218714849
  0
LINE
  8
Layer0$C$L0
 10
4.0614829580
 20
-1.6964232281
 11
4.4264819484
 21
-1.6644899543
  0
LINE
  8
Layer0$C$L0
 10
4.1144840588
 20
-1.6315570438
 11
4.3630221586
 21
-1.6098127776
  0
LINE
  8
Layer0$C$L0
 10
2.4844841828
 20
-1.6315570438
 11
2.7330222826
 21
-1.6098127776
  0
LINE
  8
Layer0$C$L0
 10
2.4314830820
 20
-1.6964232281
 11
2.7964820723
 21
-1.6644899543
  0
LINE
  8
Layer0$C$L0
 10
2.4093928874
 20
-1.7585850587
 11
2.8290309558
 21
-1.7218714849
  0
LINE
  8
Layer0$C$L0
 10
2.4062746304
 20
-1.8190870597
 11
2.8426079017
 21
-1.7809128449
  0
LINE
  8
Layer0$C$L0
 10
2.4198515763
 20
-1.8781284198
 11
2.8394896447
 21
-1.8414148460
  0
LINE
  8
Layer0$C$L0
 10
2.4524004598
 20
-1.9355099503
 11
2.8173994501
 21
-1.9035766765
  0
CIRCLE
  8
Layer0$C$L0
 10
2.6244412661
 20
-1.7999999523
 40
0.2189999968
  0
LINE
  8
Layer0$C$L0
 10
2.4756420914
 20
-1.9606853724
 11
2.7732404407
 21
-1.9606853724
  0
ARC
  8
Layer0$C$L0
 10
2.6244412661
 20
-1.7999999523
 40
0.2006854191
 50
233.1953815372
 51
306.8046184628
  0
ARC
  8
Layer0$C$L0
 10
0.9894412756
 20
-1.7999999523
 40
0.2006854191
 50
233.1953815372
 51
306.8046184628
  0
LINE
  8
Layer0$C$L0
 10
0.8406421009
 20
-1.9606853724
 11
1.1382404503
 21
-1.9606853724
  0
CIRCLE
  8
Layer0$C$L0
 10
0.9894412756
 20
-1.7999999523
 40
0.2189999968
  0
CIRCLE
  8
Layer0$C$L0
 10
3.8984412402
 20
2.5000000000
 40
0.1360000074
  0
CIRCLE
  8
Layer0$C$L0
  6
DASHED
 10
3.8984412402
 20
2.5000000000
 40
0.1562500000
  0
LINE
  8
Layer0$C$L0
 10
3.7791125905
 20
2.4347567984
 11
4.0005625972
 21
2.5898177624
  0
LINE
  8
Layer0$C$L0
 10
3.7963198832
 20
2.4101822376
 11
4.0177698899
 21
2.5652432016
  0
LINE
  8
Layer0$C$L0
 10
4.1533198914
 20
2.4101822376
 11
4.3747698982
 21
2.5652432016
  0
LINE
  8
Layer0$C$L0
 10
4.1361125987
 20
2.4347567984
 11
4.3575626055
 21
2.5898177624
  0
CIRCLE
  8
Layer0$C$L0
  6
DASHED
 10
4.2554412484
 20
2.5000000000
 40
0.1562500000
  0
CIRCLE
  8
Layer0$C$L0
 10
4.2554412484
 20
2.5000000000
 40
0.1360000074
  0
CIRCLE
  8
Layer0$C$L0
 10
4.6104410440
 20
2.5000000000
 40
0.1360000074
  0
CIRCLE
  8
Layer0$C$L0
  6
DASHED
 10
4.6104410440
 20
2.5000000000
 40
0.1562500000
  0
LINE
  8
Layer0$C$L0
 10
4.4911123942
 20
2.4347567984
 11
4.7125624010
 21
2.5898177624
  0
LINE
  8
Layer0$C$L0
 10
4.5083196869
 20
2.4101822376
 11
4.7297696937
 21
2.5652432016
  0
LINE
  8
Layer0$C$L0
 10
4.5083196869
 20
2.9101822376
 11
4.7297696937
 21
3.0652432016
  0
LINE
  8
Layer0$C$L0
 10
4.4911123942
 20
2.9347567984
 11
4.7125624010
 21
3.0898177624
  0
CIRCLE
  8
Layer0$C$L0
  6
DASHED
 10
4.6104410440
 20
3.0000000000
 40
0.1562500000
  0
CIRCLE
  8
Layer0$C$L0
 10
4.6104410440
 20
3.0000000000
 40
0.1360000074
  0
CIRCLE
  8
Layer0$C$L0
 10
4.2554412484
 20
3.0000000000
 40
0.1360000074
  0
CIRCLE
  8
Layer0$C$L0
  6
DASHED
 10
4.2554412484
 20
3.0000000000
 40
0.1562500000
  0
LINE
  8
Layer0$C$L0
 10
4.1361125987
 20
2.9347567984
 11
4.3575626055
 21
3.0898177624
  0
LINE
  8
Layer0$C$L0
 10
4.1533198914
 20
2.9101822376
 11
4.3747698982
 21
3.0652432016
  0
LINE
  8
Layer0$C$L0
 10
3.7963198832
 20
2.9101822376
 11
4.0177698899
 21
3.0652432016
  0
LINE
  8
Layer0$C$L0
 10
3.7791125905
 20
2.9347567984
 11
4.0005625972
 21
3.0898177624
  0
CIRCLE
  8
Layer0$C$L0
  6
DASHED
 10
3.8984412402
 20
3.0000000000
 40
0.1562500000
  0
CIRCLE
  8
Layer0$C$L0
 10
3.8984412402
 20
3.0000000000
 40
0.1360000074
  0
LINE
  8
Layer0$C$L0
 10
4.5044412613
 20
2.2500000000
 11
4.8364410400
 21
2.2500000000
  0
LINE
  8
Layer0$C$L0
 10
3.6724412441
 20
2.2500000000
 11
4.0044412613
 21
2.2500000000
  0
LINE
  8
Layer0$C$L0
 10
3.6724412441
 20
2.7500000000
 11
4.8364410400
 21
2.7500000000
  0
INSERT
  8
Layer0$C$L0
  2
TOPSET7_16
 10
4.2554408665
 20
1.1250000000
  0
CIRCLE
  8
Layer0$C$L0
 10
4.254441
 20
2.000000
 40
0.250000
  0
LINE
  8
Layer0$C$L0
 10
4.004441
 20
2.000000
 11
4.004441
 21
2.250000
  0
LINE
  8
Layer0$C$L0
 10
4.504441
 20
2.000000
 11
4.504441
 21
2.250000
  0
LINE
  8
Layer0$C$L0
 10
2.874441
 20
2.000000
 11
2.874441
 21
2.250000
  0
LINE
  8
Layer0$C$L0
 10
2.374441
 20
2.000000
 11
2.374441
 21
2.250000
  0
CIRCLE
  8
Layer0$C$L0
 10
2.624441
 20
2.000000
 40
0.250000
  0
INSERT
  8
Layer0$C$L0
  2
TOPSET7_16
 10
2.6254409905
 20
1.1250000000
  0
LINE
  8
Layer0$C$L0
 10
2.0424413681
 20
2.7500000000
 11
3.2064411640
 21
2.7500000000
  0
LINE
  8
Layer0$C$L0
 10
2.0424413681
 20
2.2500000000
 11
2.3744413853
 21
2.2500000000
  0
LINE
  8
Layer0$C$L0
 10
2.8744413853
 20
2.2500000000
 11
3.2064411640
 21
2.2500000000
  0
CIRCLE
  8
Layer0$C$L0
 10
2.2684413642
 20
3.0000000000
 40
0.1360000074
  0
CIRCLE
  8
Layer0$C$L0
  6
DASHED
 10
2.2684413642
 20
3.0000000000
 40
0.1562500000
  0
LINE
  8
Layer0$C$L0
 10
2.1491127144
 20
2.9347567984
 11
2.3705627212
 21
3.0898177624
  0
LINE
  8
Layer0$C$L0
 10
2.1663200071
 20
2.9101822376
 11
2.3877700139
 21
3.0652432016
  0
LINE
  8
Layer0$C$L0
 10
2.5233200154
 20
2.9101822376
 11
2.7447700221
 21
3.0652432016
  0
LINE
  8
Layer0$C$L0
 10
2.5061127227
 20
2.9347567984
 11
2.7275627294
 21
3.0898177624
  0
CIRCLE
  8
Layer0$C$L0
  6
DASHED
 10
2.6254413724
 20
3.0000000000
 40
0.1562500000
  0
CIRCLE
  8
Layer0$C$L0
 10
2.6254413724
 20
3.0000000000
 40
0.1360000074
  0
CIRCLE
  8
Layer0$C$L0
 10
2.9804411680
 20
3.0000000000
 40
0.1360000074
  0
CIRCLE
  8
Layer0$C$L0
  6
DASHED
 10
2.9804411680
 20
3.0000000000
 40
0.1562500000
  0
LINE
  8
Layer0$C$L0
 10
2.8611125182
 20
2.9347567984
 11
3.0825625250
 21
3.0898177624
  0
LINE
  8
Layer0$C$L0
 10
2.8783198109
 20
2.9101822376
 11
3.0997698177
 21
3.0652432016
  0
LINE
  8
Layer0$C$L0
 10
2.8783198109
 20
2.4101822376
 11
3.0997698177
 21
2.5652432016
  0
LINE
  8
Layer0$C$L0
 10
2.8611125182
 20
2.4347567984
 11
3.0825625250
 21
2.5898177624
  0
CIRCLE
  8
Layer0$C$L0
  6
DASHED
 10
2.9804411680
 20
2.5000000000
 40
0.1562500000
  0
CIRCLE
  8
Layer0$C$L0
 10
2.9804411680
 20
2.5000000000
 40
0.1360000074
  0
CIRCLE
  8
Layer0$C$L0
 10
2.6254413724
 20
2.5000000000
 40
0.1360000074
  0
CIRCLE
  8
Layer0$C$L0
  6
DASHED
 10
2.6254413724
 20
2.5000000000
 40
0.1562500000
  0
LINE
  8
Layer0$C$L0
 10
2.5061127227
 20
2.4347567984
 11
2.7275627294
 21
2.5898177624
  0
LINE
  8
Layer0$C$L0
 10
2.5233200154
 20
2.4101822376
 11
2.7447700221
 21
2.5652432016
  0
LINE
  8
Layer0$C$L0
 10
2.1663200071
 20
2.4101822376
 11
2.3877700139
 21
2.5652432016
  0
LINE
  8
Layer0$C$L0
 10
2.1491127144
 20
2.4347567984
 11
2.3705627212
 21
2.5898177624
  0
CIRCLE
  8
Layer0$C$L0
  6
DASHED
 10
2.2684413642
 20
2.5000000000
 40
0.1562500000
  0
CIRCLE
  8
Layer0$C$L0
 10
2.2684413642
 20
2.5000000000
 40
0.1360000074
  0
CIRCLE
  8
Layer0$C$L0
 10
0.6334413737
 20
2.5000000000
 40
0.1360000074
  0
CIRCLE
  8
Layer0$C$L0
  6
DASHED
 10
0.6334413737
 20
2.5000000000
 40
0.1562500000
  0
LINE
  8
Layer0$C$L0
 10
0.5141127240
 20
2.4347567984
 11
0.7355627307
 21
2.5898177624
  0
LINE
  8
Layer0$C$L0
 10
0.5313200167
 20
2.4101822376
 11
0.7527700234
 21
2.5652432016
  0
LINE
  8
Layer0$C$L0
 10
0.8883200249
 20
2.4101822376
 11
1.1097700317
 21
2.5652432016
  0
LINE
  8
Layer0$C$L0
 10
0.8711127322
 20
2.4347567984
 11
1.0925627390
 21
2.5898177624
  0
CIRCLE
  8
Layer0$C$L0
  6
DASHED
 10
0.9904413819
 20
2.5000000000
 40
0.1562500000
  0
CIRCLE
  8
Layer0$C$L0
 10
0.9904413819
 20
2.5000000000
 40
0.1360000074
  0
CIRCLE
  8
Layer0$C$L0
 10
1.3454411775
 20
2.5000000000
 40
0.1360000074
  0
CIRCLE
  8
Layer0$C$L0
  6
DASHED
 10
1.3454411775
 20
2.5000000000
 40
0.1562500000
  0
LINE
  8
Layer0$C$L0
 10
1.2261125277
 20
2.4347567984
 11
1.4475625345
 21
2.5898177624
  0
LINE
  8
Layer0$C$L0
 10
1.2433198205
 20
2.4101822376
 11
1.4647698272
 21
2.5652432016
  0
LINE
  8
Layer0$C$L0
 10
1.2433198205
 20
2.9101822376
 11
1.4647698272
 21
3.0652432016
  0
LINE
  8
Layer0$C$L0
 10
1.2261125277
 20
2.9347567984
 11
1.4475625345
 21
3.0898177624
  0
CIRCLE
  8
Layer0$C$L0
  6
DASHED
 10
1.3454411775
 20
3.0000000000
 40
0.1562500000
  0
CIRCLE
  8
Layer0$C$L0
 10
1.3454411775
 20
3.0000000000
 40
0.1360000074
  0
CIRCLE
  8
Layer0$C$L0
 10
0.9904413819
 20
3.0000000000
 40
0.1360000074
  0
CIRCLE
  8
Layer0$C$L0
  6
DASHED
 10
0.9904413819
 20
3.0000000000
 40
0.1562500000
  0
LINE
  8
Layer0$C$L0
 10
0.8711127322
 20
2.9347567984
 11
1.0925627390
 21
3.0898177624
  0
LINE
  8
Layer0$C$L0
 10
0.8883200249
 20
2.9101822376
 11
1.1097700317
 21
3.0652432016
  0
LINE
  8
Layer0$C$L0
 10
0.5313200167
 20
2.9101822376
 11
0.7527700234
 21
3.0652432016
  0
LINE
  8
Layer0$C$L0
 10
0.5141127240
 20
2.9347567984
 11
0.7355627307
 21
3.0898177624
  0
CIRCLE
  8
Layer0$C$L0
  6
DASHED
 10
0.6334413737
 20
3.0000000000
 40
0.1562500000
  0
CIRCLE
  8
Layer0$C$L0
 10
0.6334413737
 20
3.0000000000
 40
0.1360000074
  0
LINE
  8
Layer0$C$L0
 10
1.2394413948
 20
2.2500000000
 11
1.5714411736
 21
2.2500000000
  0
LINE
  8
Layer0$C$L0
 10
0.4074413776
 20
2.2500000000
 11
0.7394413948
 21
2.2500000000
  0
LINE
  8
Layer0$C$L0
 10
0.4074413776
 20
2.7500000000
 11
1.5714411736
 21
2.7500000000
  0
INSERT
  8
Layer0$C$L0
  2
TOPSET7_16
 10
0.9904410000
 20
1.1250000000
  0
TEXT
  8
Layer0$C$L0
 10
6.511111
 20
-4.537511
 40
0.125000
  1
P/N  66563 (CU ONLY)
 72
     5
 11
8.978111
 21
-4.537511
  0
TEXT
  8
Layer0$C$L0
 10
6.511111
 20
-4.724511
 40
0.125000
  1
     67563 (CU-AL)
 72
     5
 11
8.728111
 21
-4.724511
  0
TEXT
  8
Layer0$C$L0
 10
12.383311
 20
-5.083276
 40
0.125000
  1
05B0509     00
 72
     5
 11
14.100312
 21
-5.083276
  0
TEXT
  8
Layer0$C$L0
 10
10.1546735764
 20
4.3145928383
 40
0.1250000000
  1
2/1/95
 41
0.8306827221
 72
     5
 11
10.6738502777
 21
4.3145928383
  0
DIMENSION
  8
Layer0$C$L0
  2
*D3
 70
     1
 10
5.1348304749
 20
-0.3425542116
 11
2.5681347847
 21
-0.3425542116
 13
0.1148307323
 23
-2.5695591488E-17
 14
5.1348304749
 24
-2.9815559743E-17
 50
180.0000000000
  0
DIMENSION
  8
Layer0$C$L0
  2
*D4
 70
     1
  1
<> TYP
 10
4.4098310471
 20
4.3705353737
 11
5.1578474045
 21
4.2767853737
 13
4.1098308563
 23
4.0768876076
 14
4.4098310471
 24
4.0768876076
 50
180.0000000000
  0
DIMENSION
  8
Layer0$C$L0
  2
*D5
 70
     1
  1
<>.163
 10
2.6248304844
 20
4.3529777527
 11
1.7208160162
 21
4.3529777527
 13
0.9898304939
 23
3.9688434601
 14
2.6248304844
 24
3.9688434601
 50
180.0000000000
  0
DIMENSION
  8
Layer0$C$L0
  2
*D6
  1
<>.87
 10
0.9898304939
 20
4.3529777527
 11
0.5224640369
 21
4.3529777527
 13
0.1148307323
 23
4.0000000000
 14
0.9898304939
 24
3.9688434601
 50
180.0000000000
  0
TEXT
  8
Layer0$C$L0
 10
9.244311
 20
-5.083276
 40
0.125000
  1
PDB
 72
     5
 11
9.586312
 21
-5.083276
  0
TEXT
  8
Layer0$C$L0
 10
9.830982
 20
4.320761
 40
0.125000
  1
00         RELEASED
 72
     5
 11
12.172982
 21
4.320761
  0
LINE
  8
Layer0$C$L0
 10
12.682787
 20
-0.605168
 11
12.424619
 21
-0.605168
  0
LINE
  8
Layer0$C$L0
 10
12.318205
 20
-1.210168
 11
11.154204
 21
-1.210168
  0
LINE
  8
Layer85$C$L85
 10
12.496203
 20
-2.450168
 11
12.408519
 21
-2.450168
  0
LINE
  8
Layer85$C$L85
 10
12.424619
 20
-0.605168
 11
12.408519
 21
-2.450168
  0
LINE
  8
Layer85$C$L85
 10
12.682787
 20
-0.605168
 11
12.706612
 21
-3.335168
  0
ARC
  8
Layer85$C$L85
 10
12.587110
 20
-0.720168
 40
1.000000E-02
 50
0.500006
 51
89.999996
  0
ARC
  8
Layer85$C$L85
 10
12.520299
 20
-0.720168
 40
1.000000E-02
 50
89.999996
 51
179.499994
  0
LINE
  8
Layer85$C$L85
 10
12.611203
 20
-2.335168
 11
12.597110
 21
-0.720081
  0
LINE
  8
Layer85$C$L85
 10
12.496203
 20
-2.335168
 11
12.510299
 21
-0.720081
  0
LINE
  8
Layer85$C$L85
 10
12.611203
 20
-3.335168
 11
12.611203
 21
-2.335168
  0
LINE
  8
Layer85$C$L85
 10
12.587110
 20
-0.710168
 11
12.520299
 21
-0.710168
  0
LINE
  8
Layer85$C$L85
 10
11.154204
 20
-2.335168
 11
11.062884
 21
-2.335168
  0
LINE
  8
Layer85$C$L85
 10
10.976205
 20
-2.835168
 11
12.371203
 21
-2.835168
  0
LINE
  8
Layer85$C$L85
 10
12.371203
 20
-2.835168
 11
12.377749
 21
-2.460168
  0
LINE
  8
Layer85$C$L85
 10
12.318205
 20
-2.460168
 11
11.154204
 21
-2.460168
  0
LINE
  8
Layer85$C$L85
 10
12.409521
 20
-2.335168
 11
12.318205
 21
-2.335168
  0
LINE
  8
Layer85$C$L85
 10
12.496202
 20
-2.460168
 11
12.377749
 21
-2.460168
  0
LINE
  8
Layer85$C$L85
 10
12.496203
 20
-3.335168
 11
12.496203
 21
-2.335168
  0
LINE
  8
Layer85$C$L85
 10
12.706612
 20
-3.335168
 11
9.226202
 21
-3.335168
  0
LINE
  8
Layer0$C$L0
 10
11.154204
 20
-2.460168
 11
11.154204
 21
-1.210168
  0
LINE
  8
Layer0$C$L0
 10
12.318205
 20
-2.460168
 11
12.318205
 21
-1.210168
  0
LINE
  8
Layer0$C$L0
 10
1.6769423609
 20
-0.6750000119
 11
1.9369426319
 21
-0.6750000119
  0
LINE
  8
Layer85$C$L85
 10
0.229442
 20
-3.300000
 11
0.229442
 21
-2.300000
  0
LINE
  8
Layer85$C$L85
 10
1.903367E-02
 20
-3.300000
 11
5.134442
 21
-3.300000
  0
LINE
  8
Layer85$C$L85
 10
0.229443
 20
-2.425000
 11
0.347896
 21
-2.425000
  0
LINE
  8
Layer85$C$L85
 10
0.316124
 20
-2.300000
 11
0.407441
 21
-2.300000
  0
LINE
  8
Layer85$C$L85
 10
0.407441
 20
-2.425000
 11
1.571441
 21
-2.425000
  0
LINE
  8
Layer85$C$L85
 10
0.354442
 20
-2.800000
 11
0.347896
 21
-2.425000
  0
LINE
  8
Layer85$C$L85
 10
1.749443
 20
-2.800000
 11
0.354442
 21
-2.800000
  0
LINE
  8
Layer85$C$L85
 10
1.571441
 20
-2.300000
 11
1.662761
 21
-2.300000
  0
LINE
  8
Layer85$C$L85
 10
0.138536
 20
-0.675000
 11
0.205347
 21
-0.675000
  0
LINE
  8
Layer85$C$L85
 10
0.114443
 20
-3.300000
 11
0.114443
 21
-2.300000
  0
LINE
  8
Layer85$C$L85
 10
0.229442
 20
-2.300000
 11
0.215347
 21
-0.684913
  0
LINE
  8
Layer85$C$L85
 10
0.114443
 20
-2.300000
 11
0.128536
 21
-0.684913
  0
ARC
  8
Layer85$C$L85
 10
0.205347
 20
-0.685000
 40
1.000000E-02
 50
0.499999
 51
90.000003
  0
ARC
  8
Layer85$C$L85
 10
0.138536
 20
-0.685000
 40
1.000000E-02
 50
90.000003
 51
179.499994
  0
LINE
  8
Layer85$C$L85
 10
4.285872E-02
 20
-0.570000
 11
1.903367E-02
 21
-3.300000
  0
LINE
  8
Layer85$C$L85
 10
0.301026
 20
-0.570000
 11
0.317127
 21
-2.415000
  0
LINE
  8
Layer85$C$L85
 10
0.229442
 20
-2.415000
 11
0.317127
 21
-2.415000
  0
LINE
  8
Layer85$C$L85
 10
0.114830
 20
0.000000
 11
5.138123
 21
0.000000
  0
LINE
  8
Layer85$C$L85
 10
0.354830
 20
4.000000
 11
0.354830
 21
2.625000
  0
ARC
  8
Layer85$C$L85
 10
1.139831
 20
0.312000
 40
0.203000
 50
269.999973
 51
449.999992
  0
ARC
  8
Layer85$C$L85
 10
1.139831
 20
0.312000
 40
0.109000
 50
269.999973
 51
449.999992
  0
ARC
  8
Layer85$C$L85
 10
0.839831
 20
0.312000
 40
0.109000
 50
90.000003
 51
270.000028
  0
ARC
  8
Layer85$C$L85
 10
0.839831
 20
0.312000
 40
0.203000
 50
90.000003
 51
270.000028
  0
ARC
  8
Layer85$C$L85
 10
0.839831
 20
3.688000
 40
0.203000
 50
90.000003
 51
270.000028
  0
ARC
  8
Layer85$C$L85
 10
0.839831
 20
3.688000
 40
0.109000
 50
90.000003
 51
270.000028
  0
ARC
  8
Layer85$C$L85
 10
1.139831
 20
3.688000
 40
0.109000
 50
270.000001
 51
449.999992
  0
ARC
  8
Layer85$C$L85
 10
1.139831
 20
3.688000
 40
0.203000
 50
270.000001
 51
449.999992
  0
LINE
  8
Layer85$C$L85
 10
1.139831
 20
3.891001
 11
0.839831
 21
3.891001
  0
LINE
  8
Layer85$C$L85
 10
1.139831
 20
3.797001
 11
0.839831
 21
3.797001
  0
LINE
  8
Layer85$C$L85
 10
1.139831
 20
3.579000
 11
0.839831
 21
3.579000
  0
LINE
  8
Layer85$C$L85
 10
1.139831
 20
3.485001
 11
0.839831
 21
3.485001
  0
LINE
  8
Layer85$C$L85
 10
1.571441
 20
2.625000
 11
1.749831
 21
2.625000
  0
LINE
  8
Layer85$C$L85
 10
1.571441
 20
1.375000
 11
1.749831
 21
1.375000
  0
LINE
  8
Layer85$C$L85
 10
1.139831
 20
0.109001
 11
0.839831
 21
0.109001
  0
LINE
  8
Layer85$C$L85
 10
1.139831
 20
0.203001
 11
0.839831
 21
0.203001
  0
LINE
  8
Layer85$C$L85
 10
1.139831
 20
0.421001
 11
0.839831
 21
0.421001
  0
LINE
  8
Layer85$C$L85
 10
1.139831
 20
0.515001
 11
0.839831
 21
0.515001
  0
LINE
  8
Layer85$C$L85
  6
CENTERLINE
 10
0.576876
 20
3.688000
 11
1.456416
 21
3.688000
  0
LINE
  8
Layer85$C$L85
 10
0.114831
 20
4.000000
 11
5.112830
 21
4.000000
  0
LINE
  8
Layer85$C$L85
 10
0.354830
 20
1.375000
 11
0.354830
 21
0.000000
  0
LINE
  8
Layer85$C$L85
  6
CENTERLINE
 10
0.989830
 20
3.968843
 11
0.989830
 21
3.382526
  0
LINE
  8
Layer85$C$L85
 10
0.229831
 20
0.134005
 11
0.229831
 21
0.000000
  0
LINE
  8
Layer85$C$L85
 10
0.229831
 20
4.000000
 11
0.229831
 21
3.865995
  0
LINE
  8
Layer85$C$L85
 10
0.229831
 20
3.633408
 11
0.229831
 21
0.365995
  0
LINE
  8
Layer85$C$L85
 10
0.114831
 20
0.133408
 11
0.114831
 21
0.000000
  0
LINE
  8
Layer85$C$L85
 10
0.114831
 20
3.633408
 11
0.114831
 21
0.366592
  0
ARC
  8
Layer85$C$L85
 10
0.172331
 20
0.250000
 40
0.130000
 50
116.251158
 51
243.748852
  0
ARC
  8
Layer85$C$L85
 10
0.172331
 20
0.250000
 40
0.130000
 50
296.251150
 51
423.748843
  0
ARC
  8
Layer85$C$L85
 10
0.172331
 20
3.750000
 40
0.130000
 50
296.251150
 51
423.748843
  0
ARC
  8
Layer85$C$L85
 10
0.172331
 20
3.750000
 40
0.130000
 50
116.251186
 51
243.748852
  0
LINE
  8
Layer85$C$L85
 10
0.114831
 20
4.000000
 11
0.114831
 21
3.866592
  0
CIRCLE
  8
Layer85$C$L85
 10
0.172331
 20
3.750000
 40
5.500000E-02
  0
CIRCLE
  8
Layer85$C$L85
 10
0.172331
 20
0.250000
 40
5.500000E-02
  0
LINE
  8
Layer0$C$L0
 10
0.407441
 20
3.250000
 11
1.571441
 21
3.250000
  0
LINE
  8
Layer0$C$L0
 10
0.407441
 20
0.750000
 11
1.571441
 21
0.750000
  0
LINE
  8
Layer85$C$L85
 10
0.229830
 20
2.625000
 11
0.407441
 21
2.625000
  0
LINE
  8
Layer85$C$L85
 10
0.229830
 20
1.375000
 11
0.407441
 21
1.375000
  0
LINE
  8
Layer0$C$L0
 10
0.407441
 20
-1.175000
 11
1.571441
 21
-1.175000
  0
LINE
  8
Layer0$C$L0
  6
CENTERLINE
 10
0.839831
 20
3.394983
 11
0.839831
 21
4.069785
  0
LINE
  8
Layer0$C$L0
  6
CENTERLINE
 10
1.139831
 20
3.402086
 11
1.139831
 21
4.069785
  0
LINE
  8
Layer0$C$L0
 10
4.285872E-02
 20
-0.570000
 11
0.301026
 21
-0.570000
  0
LINE
  8
Layer0$C$L0
 10
0.407441
 20
0.750000
 11
0.407441
 21
3.250000
  0
LINE
  8
Layer0$C$L0
 10
1.571441
 20
0.750000
 11
1.571441
 21
3.250000
  0
CIRCLE
  8
Layer0$C$L0
 10
0.989441
 20
2.000000
 40
0.250000
  0
LINE
  8
Layer0$C$L0
 10
0.739441
 20
2.000000
 11
0.739441
 21
2.250000
  0
LINE
  8
Layer0$C$L0
 10
1.239441
 20
2.000000
 11
1.239441
 21
2.250000
  0
LINE
  8
Layer0$C$L0
 10
0.407441
 20
-2.425000
 11
0.407441
 21
-1.175000
  0
LINE
  8
Layer0$C$L0
 10
1.571441
 20
-2.425000
 11
1.571441
 21
-1.175000
  0
LINE
  8
Layer0$C$L0
 10
0.8174004693
 20
-1.9355099503
 11
1.1823994597
 21
-1.9035766765
  0
LINE
  8
Layer0$C$L0
 10
0.7848515858
 20
-1.8781284198
 11
1.2044896543
 21
-1.8414148460
  0
LINE
  8
Layer0$C$L0
 10
0.7712746399
 20
-1.8190870597
 11
1.2076079113
 21
-1.7809128449
  0
LINE
  8
Layer0$C$L0
 10
0.7743928969
 20
-1.7585850587
 11
1.1940309654
 21
-1.7218714849
  0
LINE
  8
Layer0$C$L0
 10
0.7964830915
 20
-1.6964232281
 11
1.1614820819
 21
-1.6644899543
  0
LINE
  8
Layer0$C$L0
 10
0.8494841924
 20
-1.6315570438
 11
1.0980222921
 21
-1.6098127776
  0
LINE
  8
Layer0$C$L0
 10
10.683207
 20
-2.460168
 11
10.683207
 21
-1.210168
  0
LINE
  8
Layer0$C$L0
 10
9.519206
 20
-2.460168
 11
9.519206
 21
-1.210168
  0
LINE
  8
Layer0$C$L0
 10
9.048205
 20
-2.460168
 11
9.048205
 21
-1.210168
  0
LINE
  8
Layer0$C$L0
 10
7.884205
 20
-2.460168
 11
7.884205
 21
-1.210168
  0
LINE
  8
Layer0$C$L0
 10
4.836441
 20
-2.425000
 11
4.836441
 21
-1.175000
  0
LINE
  8
Layer0$C$L0
 10
3.672441
 20
-2.425000
 11
3.672441
 21
-1.175000
  0
LINE
  8
Layer0$C$L0
 10
3.206441
 20
-2.425000
 11
3.206441
 21
-1.175000
  0
LINE
  8
Layer0$C$L0
 10
2.042441
 20
-2.425000
 11
2.042441
 21
-1.175000
  0
LINE
  8
Layer0$C$L0
 10
3.672441
 20
0.750000
 11
3.672441
 21
3.250000
  0
LINE
  8
Layer0$C$L0
 10
4.836441
 20
0.750000
 11
4.836441
 21
3.250000
  0
LINE
  8
Layer0$C$L0
 10
3.206441
 20
0.750000
 11
3.206441
 21
3.250000
  0
LINE
  8
Layer0$C$L0
 10
2.042441
 20
0.750000
 11
2.042441
 21
3.250000
  0
TEXT
  8
Layer0$C$L0
 10
-0.358100
 20
-4.468613
 40
0.100000
  1
1. MATERIAL COMPOSITION AND RATING:
 72
     5
 11
3.115160
 21
-4.468613
  0
TEXT
  8
Layer0$C$L0
 10
-0.358100
 20
-4.618613
 40
0.100000
  1
   BASE: THERMOPLASTIC 125%%dC RTI
 72
     5
 11
2.815160
 21
-4.618613
  0
TEXT
  8
Layer0$C$L0
 10
-0.358100
 20
-4.768613
 40
0.100000
  1
   CONNECTOR: ALUMINUM OR COPPER ALLOY-TIN PLATED
 72
     5
 11
4.515160
 21
-4.768613
  0
TEXT
  8
Layer0$C$L0
 10
13.049226
 20
0.205013
 40
0.100000
  1
LR15469
 72
     5
 11
13.722486
 21
0.205013
  0
TEXT
  8
Layer0$C$L0
 10
12.365201
 20
0.205013
 40
0.100000
  1
XCFR2
 72
     5
 11
12.838461
 21
0.205013
  0
TEXT
  8
Layer0$C$L0
 10
11.577538
 20
0.205013
 40
0.100000
  1
E73571
 72
     5
 11
12.150798
 21
0.205013
  0
LINE
  8
Layer0$C$L0
 10
6.545275
 20
-3.703833E-03
 11
13.807669
 21
-3.703833E-03
  0
LINE
  8
Layer0$C$L0
 10
6.546476
 20
0.670284
 11
13.808869
 21
0.670284
  0
TEXT
  8
Layer0$C$L0
 10
13.026170
 20
1.534908
 40
0.100000
  1
REPORT #
 72
     5
 11
13.799430
 21
1.534908
  0
TEXT
  8
Layer0$C$L0
 10
12.293239
 20
1.534908
 40
0.100000
  1
GUIDE #
 72
     5
 11
12.966499
 21
1.534908
  0
TEXT
  8
Layer0$C$L0
 10
11.555891
 20
1.534908
 40
0.100000
  1
FILE #
 72
     5
 11
12.129151
 21
1.534908
  0
TEXT
  8
Layer0$C$L0
 10
13.065670
 20
0.933430
 40
0.100000
  1
LR69363
 72
     5
 11
13.738930
 21
0.933430
  0
TEXT
  8
Layer0$C$L0
 10
12.359230
 20
0.946676
 40
0.100000
  1
XCFR2
 72
     5
 11
12.832490
 21
0.946676
  0
TEXT
  8
Layer0$C$L0
 10
11.595014
 20
0.953714
 40
0.100000
  1
E73571
 72
     5
 11
12.168274
 21
0.953714
  0
TEXT
  8
Layer0$C$L0
 10
13.193950
 20
1.782162
 40
0.156000
  1
CSA
 72
     5
 11
13.620236
 21
1.782162
  0
TEXT
  8
Layer0$C$L0
 10
12.121044
 20
1.804239
 40
0.156000
  1
UL
 72
     5
 11
12.391330
 21
1.804239
  0
LINE
  8
Layer0$C$L0
 10
13.807669
 20
2.046297
 11
13.807669
 21
-3.703833E-03
  0
TEXT
  8
Layer0$C$L0
 10
10.520279
 20
1.523966
 40
0.100000
  1
TORQUE
 72
     5
 11
11.093539
 21
1.523966
  0
TEXT
  8
Layer0$C$L0
 10
9.595277
 20
1.523966
 40
0.100000
  1
RANGE
 72
     5
 11
10.068537
 21
1.523966
  0
TEXT
  8
Layer0$C$L0
 10
9.945278
 20
1.698966
 40
0.100000
  1
SECONDARY
 72
     5
 11
10.818538
 21
1.698966
  0
TEXT
  8
Layer0$C$L0
 10
6.745276
 20
1.723965
 40
0.100000
  1
P/N
 72
     5
 11
7.018537
 21
1.723965
  0
TEXT
  8
Layer0$C$L0
 10
8.395275
 20
1.523966
 40
0.100000
  1
TORQUE
 72
     5
 11
8.968535
 21
1.523966
  0
TEXT
  8
Layer0$C$L0
 10
7.495276
 20
1.523966
 40
0.100000
  1
RANGE
 72
     5
 11
7.968537
 21
1.523966
  0
TEXT
  8
Layer0$C$L0
 10
7.870275
 20
1.698966
 40
0.100000
  1
PRIMARY
 72
     5
 11
8.543536
 21
1.698966
  0
TEXT
  8
Layer0$C$L0
 10
7.870275
 20
1.898966
 40
0.100000
  1
WIRE RANGE & TORQUE (IN-LBS)
 72
     5
 11
10.643536
 21
1.898966
  0
LINE
  8
Layer0$C$L0
 10
12.995277
 20
2.046297
 11
12.995277
 21
-3.703833E-03
  0
LINE
  8
Layer0$C$L0
 10
12.245277
 20
1.671297
 11
12.245277
 21
-3.703833E-03
  0
LINE
  8
Layer0$C$L0
 10
11.495277
 20
2.046297
 11
11.495277
 21
-3.703833E-03
  0
LINE
  8
Layer0$C$L0
 10
10.270278
 20
1.671297
 11
10.270278
 21
-3.703833E-03
  0
LINE
  8
Layer0$C$L0
 10
9.470278
 20
1.846297
 11
9.470278
 21
-3.703833E-03
  0
LINE
  8
Layer0$C$L0
 10
8.170276
 20
1.671297
 11
8.170276
 21
-3.703833E-03
  0
LINE
  8
Layer0$C$L0
 10
7.345275
 20
2.046297
 11
7.345275
 21
-3.703833E-03
  0
LINE
  8
Layer0$C$L0
 10
6.545275
 20
2.046297
 11
6.545275
 21
-3.703833E-03
  0
LINE
  8
Layer0$C$L0
 10
7.345275
 20
1.671297
 11
13.807669
 21
1.671297
  0
LINE
  8
Layer0$C$L0
 10
6.545275
 20
1.496297
 11
13.807669
 21
1.496297
  0
LINE
  8
Layer0$C$L0
 10
7.345275
 20
1.846297
 11
11.495277
 21
1.846297
  0
LINE
  8
Layer0$C$L0
 10
6.545275
 20
2.046297
 11
13.807669
 21
2.046297
  0
TEXT
  8
Layer0$C$L0
 10
-0.617477
 20
-4.988393
 40
0.125000
  1
NOTES: UNLESS OTHERWISE SPECIFIED
 72
     5
 11
3.474523
 21
-4.988393
  0
DIMENSION
  8
Layer0$C$L0
  2
*D7
 10
5.804759
 20
-0.710168
 11
5.804758
 21
-1.948705
 13
7.591204
 23
-3.335168
 14
7.518704
 24
-0.710168
 50
90.000000
  0
DIMENSION
  8
Layer0$C$L0
  2
*D8
 10
-0.851285
 20
-0.570000
 11
-0.851285
 21
-1.719254
 13
-0.392714
 23
-3.300000
 14
-0.203304
 24
-0.570000
 50
89.999998
  0
DIMENSION
  8
Layer0$C$L0
  2
*D9
 70
     1
  1
<>TYP
 10
7.098103
 20
3.485001
 11
7.098103
 21
2.761594
 13
4.409831
 23
3.891001
 14
4.409831
 24
3.485001
 50
90.000000
  0
DIMENSION
  8
Layer0$C$L0
  2
*D10
 70
     1
  1
<> THRU 
 10
6.131585
 20
3.579000
 11
6.131585
 21
2.930067
 13
4.409831
 23
3.797001
 14
4.409831
 24
3.579000
 50
90.000000
  0
DIMENSION
  8
Layer0$C$L0
  2
*D11
 10
-0.858789
 20
1.028895E-07
 11
-0.858789
 21
1.969395
 13
-0.233346
 23
4.000000
 14
-0.253149
 24
7.646980E-08
 50
-90.000002
  0
DIMENSION
  8
Layer0$C$L0
  2
*D12
 10
-0.371750
 20
3.688000
 11
-0.371750
 21
3.875000
 13
-5.366337E-02
 23
4.000000
 14
9.576405E-02
 24
3.688000
 50
-90.000004
  0
DIMENSION
  8
Layer0$C$L0
  2
*D13
 70
     1
 10
-0.371751
 20
0.312000
 11
-0.371751
 21
2.174464
 13
0.255267
 23
3.688000
 14
0.255267
 24
0.312000
 50
89.999996
  0
INSERT
  8
Layer0$C$L0
  2
REV-LINESP
 10
14.143983
 20
4.282762
  0
INSERT
  8
Layer0$C$L0
  2
REV-LINESP
 10
14.143982
 20
4.482762
  0
INSERT
  8
Layer0$C$L0
  2
BP
 10
6.486982
 20
-0.223489
  0
LINE
  8
Layer0$C$L0
 10
7.953971
 20
-1.545044
 11
8.263649
 21
-1.523389
  0
LINE
  8
Layer0$C$L0
 10
7.956762
 20
-1.584946
 11
8.266439
 21
-1.563293
  0
LINE
  8
Layer85$C$L85
 10
7.778704
 20
-0.710168
 11
7.518704
 21
-0.710168
  0
LINE
  8
Layer85$C$L85
 10
11.071613
 20
-3.335168
 11
7.591204
 21
-3.335168
  0
LINE
  8
Layer85$C$L85
 10
7.884205
 20
-2.335168
 11
7.792885
 21
-2.335168
  0
LINE
  8
Layer85$C$L85
 10
7.591204
 20
-3.335168
 11
7.591204
 21
-2.335168
  0
LINE
  8
Layer85$C$L85
 10
7.706204
 20
-2.835168
 11
7.706204
 21
-2.335168
  0
LINE
  8
Layer85$C$L85
 10
7.591204
 20
-2.335168
 11
7.605299
 21
-0.720081
  0
LINE
  8
Layer85$C$L85
 10
7.706204
 20
-2.335168
 11
7.692111
 21
-0.720081
  0
ARC
  8
Layer85$C$L85
 10
7.615300
 20
-0.720168
 40
1.000000E-02
 50
89.999996
 51
179.499994
  0
ARC
  8
Layer85$C$L85
 10
7.682110
 20
-0.720168
 40
1.000000E-02
 50
0.500006
 51
89.999996
  0
LINE
  8
Layer85$C$L85
 10
7.706204
 20
-2.835168
 11
9.101205
 21
-2.835168
  0
LINE
  8
Layer85$C$L85
 10
9.101205
 20
-2.835168
 11
9.107751
 21
-2.460168
  0
LINE
  8
Layer85$C$L85
 10
7.778704
 20
-0.710168
 11
7.797249
 21
-2.835168
  0
LINE
  8
Layer85$C$L85
 10
7.518704
 20
-0.710168
 11
7.503520
 21
-2.450168
  0
LINE
  8
Layer85$C$L85
 10
7.591204
 20
-2.450168
 11
7.503520
 21
-2.450168
  0
LINE
  8
Layer85$C$L85
 10
9.048205
 20
-2.460168
 11
7.884205
 21
-2.460168
  0
LINE
  8
Layer85$C$L85
 10
9.139523
 20
-2.335168
 11
9.048205
 21
-2.335168
  0
LINE
  8
Layer85$C$L85
 10
9.226204
 20
-2.460168
 11
9.107751
 21
-2.460168
  0
LINE
  8
Layer85$C$L85
 10
9.226207
 20
-3.335168
 11
9.226207
 21
-2.335168
  0
LINE
  8
Layer85$C$L85
 10
10.861205
 20
-3.335168
 11
10.861205
 21
-2.335168
  0
LINE
  8
Layer85$C$L85
 10
10.861204
 20
-2.460168
 11
10.742751
 21
-2.460168
  0
LINE
  8
Layer85$C$L85
 10
10.774523
 20
-2.335168
 11
10.683207
 21
-2.335168
  0
LINE
  8
Layer85$C$L85
 10
10.683207
 20
-2.460168
 11
9.519206
 21
-2.460168
  0
LINE
  8
Layer85$C$L85
 10
9.226205
 20
-2.450168
 11
9.138520
 21
-2.450168
  0
LINE
  8
Layer85$C$L85
 10
9.153705
 20
-0.710168
 11
9.138520
 21
-2.450168
  0
LINE
  8
Layer85$C$L85
 10
9.413705
 20
-0.710168
 11
9.432250
 21
-2.835168
  0
LINE
  8
Layer85$C$L85
 10
10.736205
 20
-2.835168
 11
10.742751
 21
-2.460168
  0
LINE
  8
Layer85$C$L85
 10
9.341205
 20
-2.835168
 11
10.736205
 21
-2.835168
  0
ARC
  8
Layer85$C$L85
 10
9.317111
 20
-0.720168
 40
1.000000E-02
 50
0.500006
 51
89.999996
  0
ARC
  8
Layer85$C$L85
 10
9.250300
 20
-0.720168
 40
1.000000E-02
 50
89.999996
 51
179.499994
  0
LINE
  8
Layer85$C$L85
 10
9.341205
 20
-2.335168
 11
9.327111
 21
-0.720081
  0
LINE
  8
Layer85$C$L85
 10
9.226205
 20
-2.335168
 11
9.240300
 21
-0.720081
  0
LINE
  8
Layer85$C$L85
 10
9.341205
 20
-2.835168
 11
9.341205
 21
-2.335168
  0
LINE
  8
Layer85$C$L85
 10
9.519206
 20
-2.335168
 11
9.427886
 21
-2.335168
  0
LINE
  8
Layer85$C$L85
 10
9.413705
 20
-0.710168
 11
9.153705
 21
-0.710168
  0
LINE
  8
Layer85$C$L85
 10
11.048705
 20
-0.710168
 11
10.788704
 21
-0.710168
  0
LINE
  8
Layer85$C$L85
 10
10.976205
 20
-2.835168
 11
10.976205
 21
-2.335168
  0
LINE
  8
Layer85$C$L85
 10
10.861205
 20
-2.335168
 11
10.875300
 21
-0.720081
  0
LINE
  8
Layer85$C$L85
 10
10.976205
 20
-2.335168
 11
10.962111
 21
-0.720081
  0
ARC
  8
Layer85$C$L85
 10
10.885301
 20
-0.720168
 40
1.000000E-02
 50
89.999996
 51
179.499994
  0
ARC
  8
Layer85$C$L85
 10
10.952111
 20
-0.720168
 40
1.000000E-02
 50
0.500006
 51
89.999996
  0
LINE
  8
Layer85$C$L85
 10
11.048705
 20
-0.710168
 11
11.067250
 21
-2.835168
  0
LINE
  8
Layer85$C$L85
 10
10.788704
 20
-0.710168
 11
10.773520
 21
-2.450168
  0
LINE
  8
Layer85$C$L85
 10
10.861205
 20
-2.450168
 11
10.773520
 21
-2.450168
  0
LINE
  8
Layer0$C$L0
 10
10.683207
 20
-1.210168
 11
9.519206
 21
-1.210168
  0
LINE
  8
Layer0$C$L0
 10
9.048205
 20
-1.210168
 11
7.884205
 21
-1.210168
  0
LINE
  8
Layer0$C$L0
 10
3.672441
 20
3.250000
 11
4.836441
 21
3.250000
  0
LINE
  8
Layer0$C$L0
 10
3.672441
 20
0.750000
 11
4.836441
 21
0.750000
  0
LINE
  8
Layer0$C$L0
  6
CENTERLINE
 10
4.409831
 20
3.409189
 11
4.409831
 21
4.076888
  0
LINE
  8
Layer0$C$L0
  6
CENTERLINE
 10
4.109831
 20
3.409189
 11
4.109831
 21
4.076888
  0
LINE
  8
Layer0$C$L0
  6
CENTERLINE
 10
2.774831
 20
3.402086
 11
2.774831
 21
4.069785
  0
LINE
  8
Layer0$C$L0
  6
CENTERLINE
 10
2.474831
 20
3.394983
 11
2.474831
 21
4.069785
  0
LINE
  8
Layer0$C$L0
 10
3.672441
 20
-1.175000
 11
4.836441
 21
-1.175000
  0
LINE
  8
Layer0$C$L0
 10
2.042441
 20
-1.175000
 11
3.206441
 21
-1.175000
  0
LINE
  8
Layer85$C$L85
 10
3.499830
 20
1.375000
 11
3.672441
 21
1.375000
  0
LINE
  8
Layer85$C$L85
 10
3.499830
 20
2.625000
 11
3.672441
 21
2.625000
  0
LINE
  8
Layer85$C$L85
 10
1.864830
 20
1.375000
 11
2.042441
 21
1.375000
  0
LINE
  8
Layer0$C$L0
 10
2.042441
 20
0.750000
 11
3.206441
 21
0.750000
  0
LINE
  8
Layer85$C$L85
 10
1.864830
 20
2.625000
 11
2.042441
 21
2.625000
  0
LINE
  8
Layer0$C$L0
 10
2.042441
 20
3.250000
 11
3.206441
 21
3.250000
  0
LINE
  8
Layer85$C$L85
 10
1.864830
 20
3.633408
 11
1.864830
 21
0.365995
  0
LINE
  8
Layer85$C$L85
 10
1.749831
 20
3.633408
 11
1.749831
 21
0.366592
  0
CIRCLE
  8
Layer85$C$L85
 10
1.807331
 20
0.250000
 40
5.500000E-02
  0
CIRCLE
  8
Layer85$C$L85
 10
1.807331
 20
3.750000
 40
5.500000E-02
  0
LINE
  8
Layer85$C$L85
 10
1.749831
 20
4.000000
 11
1.749831
 21
3.866592
  0
ARC
  8
Layer85$C$L85
 10
1.807331
 20
3.750000
 40
0.130000
 50
116.251186
 51
243.748852
  0
ARC
  8
Layer85$C$L85
 10
1.807331
 20
3.750000
 40
0.130000
 50
296.251150
 51
423.748843
  0
ARC
  8
Layer85$C$L85
 10
1.807331
 20
0.250000
 40
0.130000
 50
296.251150
 51
423.748843
  0
ARC
  8
Layer85$C$L85
 10
1.807331
 20
0.250000
 40
0.130000
 50
116.251158
 51
243.748852
  0
LINE
  8
Layer85$C$L85
 10
1.749831
 20
0.133408
 11
1.749831
 21
0.000000
  0
LINE
  8
Layer85$C$L85
 10
1.864830
 20
4.000000
 11
1.864830
 21
3.865995
  0
LINE
  8
Layer85$C$L85
 10
1.864830
 20
0.134005
 11
1.864830
 21
0.000000
  0
LINE
  8
Layer85$C$L85
  6
CENTERLINE
 10
2.624830
 20
3.968843
 11
2.624830
 21
3.382526
  0
LINE
  8
Layer85$C$L85
 10
1.989830
 20
1.375000
 11
1.989830
 21
0.000000
  0
LINE
  8
Layer85$C$L85
 10
3.499830
 20
0.134005
 11
3.499830
 21
0.000000
  0
LINE
  8
Layer85$C$L85
 10
3.499830
 20
4.000000
 11
3.499830
 21
3.865995
  0
LINE
  8
Layer85$C$L85
 10
3.499830
 20
3.633408
 11
3.499830
 21
0.365995
  0
LINE
  8
Layer85$C$L85
  6
CENTERLINE
 10
2.211876
 20
3.688000
 11
3.091416
 21
3.688000
  0
LINE
  8
Layer85$C$L85
 10
2.774831
 20
0.515001
 11
2.474831
 21
0.515001
  0
LINE
  8
Layer85$C$L85
 10
2.774831
 20
0.421001
 11
2.474831
 21
0.421001
  0
LINE
  8
Layer85$C$L85
 10
2.774831
 20
0.203001
 11
2.474831
 21
0.203001
  0
LINE
  8
Layer85$C$L85
 10
2.774831
 20
0.109001
 11
2.474831
 21
0.109001
  0
LINE
  8
Layer85$C$L85
 10
3.206441
 20
1.375000
 11
3.384831
 21
1.375000
  0
LINE
  8
Layer85$C$L85
 10
3.206441
 20
2.625000
 11
3.384831
 21
2.625000
  0
LINE
  8
Layer85$C$L85
 10
2.774831
 20
3.485001
 11
2.474831
 21
3.485001
  0
LINE
  8
Layer85$C$L85
 10
2.774831
 20
3.579000
 11
2.474831
 21
3.579000
  0
LINE
  8
Layer85$C$L85
 10
2.774831
 20
3.797001
 11
2.474831
 21
3.797001
  0
LINE
  8
Layer85$C$L85
 10
2.774831
 20
3.891001
 11
2.474831
 21
3.891001
  0
LINE
  8
Layer85$C$L85
 10
3.384831
 20
0.133408
 11
3.384831
 21
0.000000
  0
LINE
  8
Layer85$C$L85
 10
3.384831
 20
3.633408
 11
3.384831
 21
0.366592
  0
ARC
  8
Layer85$C$L85
 10
3.442331
 20
0.250000
 40
0.130000
 50
116.251158
 51
243.748852
  0
ARC
  8
Layer85$C$L85
 10
3.442331
 20
0.250000
 40
0.130000
 50
296.251150
 51
423.748843
  0
ARC
  8
Layer85$C$L85
 10
3.442331
 20
3.750000
 40
0.130000
 50
296.251150
 51
423.748843
  0
ARC
  8
Layer85$C$L85
 10
3.442331
 20
3.750000
 40
0.130000
 50
116.251186
 51
243.748852
  0
LINE
  8
Layer85$C$L85
 10
3.384831
 20
4.000000
 11
3.384831
 21
3.866592
  0
ARC
  8
Layer85$C$L85
 10
2.774831
 20
3.688000
 40
0.203000
 50
270.000001
 51
449.999992
  0
ARC
  8
Layer85$C$L85
 10
2.774831
 20
3.688000
 40
0.109000
 50
270.000001
 51
449.999992
  0
ARC
  8
Layer85$C$L85
 10
2.474831
 20
3.688000
 40
0.109000
 50
90.000003
 51
270.000028
  0
ARC
  8
Layer85$C$L85
 10
2.474831
 20
3.688000
 40
0.203000
 50
90.000003
 51
270.000028
  0
ARC
  8
Layer85$C$L85
 10
2.474831
 20
0.312000
 40
0.203000
 50
90.000003
 51
270.000028
  0
ARC
  8
Layer85$C$L85
 10
2.474831
 20
0.312000
 40
0.109000
 50
90.000003
 51
270.000028
  0
ARC
  8
Layer85$C$L85
 10
2.774831
 20
0.312000
 40
0.109000
 50
269.999973
 51
449.999992
  0
ARC
  8
Layer85$C$L85
 10
2.774831
 20
0.312000
 40
0.203000
 50
269.999973
 51
449.999992
  0
LINE
  8
Layer85$C$L85
 10
1.989830
 20
4.000000
 11
1.989830
 21
2.625000
  0
CIRCLE
  8
Layer85$C$L85
 10
3.442331
 20
3.750000
 40
5.500000E-02
  0
CIRCLE
  8
Layer85$C$L85
 10
3.442331
 20
0.250000
 40
5.500000E-02
  0
LINE
  8
Layer85$C$L85
 10
1.864442
 20
-2.415000
 11
1.952127
 21
-2.415000
  0
LINE
  8
Layer85$C$L85
 10
1.864440
 20
-3.300000
 11
1.864440
 21
-2.300000
  0
LINE
  8
Layer85$C$L85
 10
1.936943
 20
-0.675000
 11
1.952127
 21
-2.415000
  0
LINE
  8
Layer85$C$L85
 10
1.676942
 20
-0.675000
 11
1.658397
 21
-2.800000
  0
ARC
  8
Layer85$C$L85
 10
1.773536
 20
-0.685000
 40
1.000000E-02
 50
90.000003
 51
179.499994
  0
ARC
  8
Layer85$C$L85
 10
1.840347
 20
-0.685000
 40
1.000000E-02
 50
0.499999
 51
90.000003
  0
LINE
  8
Layer85$C$L85
 10
1.749443
 20
-2.300000
 11
1.763536
 21
-0.684913
  0
LINE
  8
Layer85$C$L85
 10
1.864442
 20
-2.300000
 11
1.850347
 21
-0.684913
  0
LINE
  8
Layer85$C$L85
 10
1.749443
 20
-2.800000
 11
1.749443
 21
-2.300000
  0
LINE
  8
Layer85$C$L85
 10
1.773536
 20
-0.675000
 11
1.840347
 21
-0.675000
  0
LINE
  8
Layer85$C$L85
 10
3.311942
 20
-0.675000
 11
3.571943
 21
-0.675000
  0
LINE
  8
Layer85$C$L85
 10
3.206441
 20
-2.300000
 11
3.297761
 21
-2.300000
  0
LINE
  8
Layer85$C$L85
 10
3.499442
 20
-3.300000
 11
3.499442
 21
-2.300000
  0
LINE
  8
Layer85$C$L85
 10
3.384443
 20
-2.800000
 11
3.384443
 21
-2.300000
  0
LINE
  8
Layer85$C$L85
 10
3.499442
 20
-2.300000
 11
3.485347
 21
-0.684913
  0
LINE
  8
Layer85$C$L85
 10
3.384443
 20
-2.300000
 11
3.398536
 21
-0.684913
  0
ARC
  8
Layer85$C$L85
 10
3.475347
 20
-0.685000
 40
1.000000E-02
 50
0.499999
 51
90.000003
  0
ARC
  8
Layer85$C$L85
 10
3.408536
 20
-0.685000
 40
1.000000E-02
 50
90.000003
 51
179.499994
  0
LINE
  8
Layer85$C$L85
 10
3.384443
 20
-2.800000
 11
1.989442
 21
-2.800000
  0
LINE
  8
Layer85$C$L85
 10
1.989442
 20
-2.800000
 11
1.982896
 21
-2.425000
  0
LINE
  8
Layer85$C$L85
 10
3.311942
 20
-0.675000
 11
3.293397
 21
-2.800000
  0
LINE
  8
Layer85$C$L85
 10
3.571943
 20
-0.675000
 11
3.587127
 21
-2.415000
  0
LINE
  8
Layer85$C$L85
 10
3.499442
 20
-2.415000
 11
3.587127
 21
-2.415000
  0
LINE
  8
Layer85$C$L85
 10
2.042441
 20
-2.425000
 11
3.206441
 21
-2.425000
  0
LINE
  8
Layer85$C$L85
 10
1.951124
 20
-2.300000
 11
2.042441
 21
-2.300000
  0
LINE
  8
Layer85$C$L85
 10
1.864443
 20
-2.425000
 11
1.982896
 21
-2.425000
  0
LINE
  8
Layer85$C$L85
 10
5.134830
 20
3.633408
 11
5.134830
 21
0.365995
  0
LINE
  8
Layer85$C$L85
 10
5.019831
 20
3.633408
 11
5.019831
 21
0.366592
  0
CIRCLE
  8
Layer85$C$L85
 10
5.077331
 20
0.250000
 40
5.500000E-02
  0
CIRCLE
  8
Layer85$C$L85
 10
5.077331
 20
3.750000
 40
5.500000E-02
  0
LINE
  8
Layer85$C$L85
 10
3.624830
 20
4.000000
 11
3.624830
 21
2.625000
  0
ARC
  8
Layer85$C$L85
 10
4.409831
 20
0.312000
 40
0.203000
 50
269.999973
 51
449.999992
  0
ARC
  8
Layer85$C$L85
 10
4.409831
 20
0.312000
 40
0.109000
 50
269.999973
 51
449.999992
  0
ARC
  8
Layer85$C$L85
 10
4.109831
 20
0.312000
 40
0.109000
 50
90.000003
 51
270.000028
  0
ARC
  8
Layer85$C$L85
 10
4.109831
 20
0.312000
 40
0.203000
 50
90.000003
 51
270.000028
  0
ARC
  8
Layer85$C$L85
 10
4.109831
 20
3.688000
 40
0.203000
 50
90.000003
 51
270.000028
  0
ARC
  8
Layer85$C$L85
 10
4.109831
 20
3.688000
 40
0.109000
 50
90.000003
 51
270.000028
  0
ARC
  8
Layer85$C$L85
 10
4.409831
 20
3.688000
 40
0.109000
 50
270.000001
 51
449.999992
  0
ARC
  8
Layer85$C$L85
 10
4.409831
 20
3.688000
 40
0.203000
 50
270.000001
 51
449.999992
  0
LINE
  8
Layer85$C$L85
 10
5.019831
 20
4.000000
 11
5.019831
 21
3.866592
  0
ARC
  8
Layer85$C$L85
 10
5.077331
 20
3.750000
 40
0.130000
 50
116.251186
 51
243.748852
  0
ARC
  8
Layer85$C$L85
 10
5.077331
 20
3.750000
 40
0.130000
 50
296.251150
 51
423.748843
  0
ARC
  8
Layer85$C$L85
 10
5.077331
 20
0.250000
 40
0.130000
 50
296.251150
 51
423.748843
  0
ARC
  8
Layer85$C$L85
 10
5.077331
 20
0.250000
 40
0.130000
 50
116.251158
 51
243.748852
  0
LINE
  8
Layer85$C$L85
 10
5.019831
 20
0.133408
 11
5.019831
 21
0.000000
  0
LINE
  8
Layer85$C$L85
 10
4.409831
 20
3.891001
 11
4.109831
 21
3.891001
  0
LINE
  8
Layer85$C$L85
 10
4.409831
 20
3.797001
 11
4.109831
 21
3.797001
  0
LINE
  8
Layer85$C$L85
 10
4.409831
 20
3.579000
 11
4.109831
 21
3.579000
  0
LINE
  8
Layer85$C$L85
 10
4.409831
 20
3.485001
 11
4.109831
 21
3.485001
  0
LINE
  8
Layer85$C$L85
 10
4.836441
 20
2.625000
 11
5.019831
 21
2.625000
  0
LINE
  8
Layer85$C$L85
 10
4.836441
 20
1.375000
 11
5.019831
 21
1.375000
  0
LINE
  8
Layer85$C$L85
 10
4.409831
 20
0.109001
 11
4.109831
 21
0.109001
  0
LINE
  8
Layer85$C$L85
 10
4.409831
 20
0.203001
 11
4.109831
 21
0.203001
  0
LINE
  8
Layer85$C$L85
 10
4.409831
 20
0.421001
 11
4.109831
 21
0.421001
  0
LINE
  8
Layer85$C$L85
 10
4.409831
 20
0.515001
 11
4.109831
 21
0.515001
  0
LINE
  8
Layer85$C$L85
  6
CENTERLINE
 10
3.846876
 20
3.688000
 11
4.726416
 21
3.688000
  0
LINE
  8
Layer85$C$L85
 10
5.134830
 20
4.000000
 11
5.134830
 21
3.865995
  0
LINE
  8
Layer85$C$L85
 10
5.134830
 20
0.134005
 11
5.134830
 21
0.000000
  0
LINE
  8
Layer85$C$L85
 10
3.624830
 20
1.375000
 11
3.624830
 21
0.000000
  0
LINE
  8
Layer85$C$L85
  6
CENTERLINE
 10
4.259830
 20
3.968843
 11
4.259830
 21
3.382526
  0
LINE
  8
Layer85$C$L85
 10
5.134440
 20
-3.300000
 11
5.134440
 21
-2.300000
  0
LINE
  8
Layer85$C$L85
 10
3.499443
 20
-2.425000
 11
3.617896
 21
-2.425000
  0
LINE
  8
Layer85$C$L85
 10
3.586124
 20
-2.300000
 11
3.672441
 21
-2.300000
  0
LINE
  8
Layer85$C$L85
 10
3.672441
 20
-2.425000
 11
4.836441
 21
-2.425000
  0
LINE
  8
Layer85$C$L85
 10
5.134442
 20
-2.415000
 11
5.222127
 21
-2.415000
  0
LINE
  8
Layer85$C$L85
 10
5.206943
 20
-0.675000
 11
5.222127
 21
-2.415000
  0
LINE
  8
Layer85$C$L85
 10
4.946942
 20
-0.675000
 11
4.928397
 21
-2.800000
  0
LINE
  8
Layer85$C$L85
 10
3.624442
 20
-2.800000
 11
3.617896
 21
-2.425000
  0
LINE
  8
Layer85$C$L85
 10
5.019443
 20
-2.800000
 11
3.624442
 21
-2.800000
  0
ARC
  8
Layer85$C$L85
 10
5.043536
 20
-0.685000
 40
1.000000E-02
 50
90.000003
 51
179.499994
  0
ARC
  8
Layer85$C$L85
 10
5.110347
 20
-0.685000
 40
1.000000E-02
 50
0.499999
 51
90.000003
  0
LINE
  8
Layer85$C$L85
 10
5.019443
 20
-2.300000
 11
5.033536
 21
-0.684913
  0
LINE
  8
Layer85$C$L85
 10
5.134442
 20
-2.300000
 11
5.120347
 21
-0.684913
  0
LINE
  8
Layer85$C$L85
 10
5.019443
 20
-2.800000
 11
5.019443
 21
-2.300000
  0
LINE
  8
Layer85$C$L85
 10
4.836441
 20
-2.300000
 11
4.932761
 21
-2.300000
  0
LINE
  8
Layer85$C$L85
 10
4.946942
 20
-0.675000
 11
5.206943
 21
-0.675000
  0
ENDSEC
  0
EOF
